Nazareth – 2xS (Remastered)




Artist: Nazareth
Year: 1982/2002
Genre: Rock
Notes: Discogs
Add. Notes: Remastered
Cover incl.: Yes
Encoder: FLAC
Bitrate: ~1000 kBit/s (44.1 kHz/16 Bit/s)
Log & Cue incl.: Yes
Size: 705,56 MB
Password: “slam” (without ” “)


All Downloads/Hosters are compatible

Download 1
Turbobit.net
KatFile.com
Rapidgator.net
Download 2
Turbobit.net
KatFile.com
Rapidgator.net

Tracklist:

1. Love Leads To Madness 	
2. Boys In The Band 	
3. You Love Another 	
4. Gatecrash 	
5. Games 	
6. Back To The Trenches 	
7. Dream On 	
8. Lonely In The Light 	
9. Preservation 	
10. Take The Rap 	
11. Mexico 	
Bonus Tracks
12. Dream On (Single Edit) 	
13. Juicy Lucy (Alternate Edit) 	
14. Games (Alternate Edit) 	
15. You Love Another (Alternate Edit) 	
16. Love Leads To Madness (Alternate Single Version) 
	
17. Dream On (Mono) 	
18. Back To The Trenches (Extended Version) 	
19. Love Leads To Madness (Alternate Extended Version)

EAC-Log, CUE-Sheed & NFO:

Click to open spoiler
Exact Audio Copy V1.1 from 23. June 2015

Отчёт EAC об извлечении, выполненном 18. августа 2016, 10:00

Nazareth / 2XS

Дисковод: TSSTcorpBDDVDW SE-506BB Adapter: 1 ID: 1

Режим чтения : Достоверность
Использование точного потока : Да
Отключение кэша аудио : Да
Использование указателей C2 : Нет

Коррекция смещения при чтении : 6
Способность читать области Lead-in и Lead-out : Нет
Заполнение пропущенных сэмплов тишиной : Да
Удаление блоков с тишиной в начале и конце : Нет
При вычислениях CRC использовались нулевые сэмплы : Да
Интерфейс : Встроенный Win32-интерфейс для Win NT/2000

Выходной формат : Внутренние WAV-операции
Формат сэмплов : 44.100 Гц; 16 бит; стерео

TOC извлечённого CD

Трек | Старт | Длительность | Начальный сектор | Конечный сектор
———————————————————————
1 | 0:00.00 | 4:06.41 | 0 | 18490
2 | 4:06.41 | 3:06.03 | 18491 | 32443
3 | 7:12.44 | 3:57.37 | 32444 | 50255
4 | 11:10.06 | 3:19.42 | 50256 | 65222
5 | 14:29.48 | 4:48.42 | 65223 | 86864
6 | 19:18.15 | 4:01.30 | 86865 | 104969
7 | 23:19.45 | 3:26.28 | 104970 | 120447
8 | 26:45.73 | 4:21.69 | 120448 | 140091
9 | 31:07.67 | 4:03.53 | 140092 | 158369
10 | 35:11.45 | 2:41.61 | 158370 | 170505
11 | 37:53.31 | 2:53.57 | 170506 | 183537
12 | 40:47.13 | 3:25.55 | 183538 | 198967
13 | 44:12.68 | 4:10.32 | 198968 | 217749
14 | 48:23.25 | 4:48.39 | 217750 | 239388
15 | 53:11.64 | 3:20.23 | 239389 | 254411
16 | 56:32.12 | 3:41.46 | 254412 | 271032
17 | 60:13.58 | 3:26.15 | 271033 | 286497
18 | 63:39.73 | 6:04.25 | 286498 | 313822
19 | 69:44.23 | 7:11.57 | 313823 | 346204

Характеристики диапазона извлечения и сообщения об ошибках

Выбранный диапазон

Имя файла D:\Temp\Nazareth – 1982 – 2XS [2002 Eagle Records, EAMCD141].wav

Пиковый уровень 90.3 %
Скорость извлечения 5.2 X
Качество диапазона 100.0 %
CRC теста 82944404
CRC копии 82944404
Копирование… OK

Ошибок не произошло

AccurateRip: сводка

Трек 1 : извлечено точно (доверие 7) [7030EC86] (AR v2)
Трек 2 : извлечено точно (доверие 7) [4D95F148] (AR v2)
Трек 3 : извлечено точно (доверие 7) [3328190B] (AR v2)
Трек 4 : извлечено точно (доверие 7) [1810654F] (AR v2)
Трек 5 : извлечено точно (доверие 7) [737F513E] (AR v2)
Трек 6 : извлечено точно (доверие 7) [2FCFC027] (AR v2)
Трек 7 : извлечено точно (доверие 7) [1D87C40C] (AR v2)
Трек 8 : извлечено точно (доверие 7) [D212FC82] (AR v2)
Трек 9 : извлечено точно (доверие 7) [DBB79E6E] (AR v2)
Трек 10 : извлечено точно (доверие 7) [5820B088] (AR v2)
Трек 11 : извлечено точно (доверие 7) [25AC78F1] (AR v2)
Трек 12 : извлечено точно (доверие 6) [A9739C9C] (AR v2)
Трек 13 : извлечено точно (доверие 6) [C0CF42DF] (AR v2)
Трек 14 : извлечено точно (доверие 6) [C3A809CC] (AR v2)
Трек 15 : извлечено точно (доверие 6) [3FAC90E8] (AR v2)
Трек 16 : извлечено точно (доверие 6) [C3115102] (AR v2)
Трек 17 : извлечено точно (доверие 6) [22603212] (AR v2)
Трек 18 : извлечено точно (доверие 6) [ACA87F70] (AR v2)
Трек 19 : извлечено точно (доверие 6) [408C4D71] (AR v2)

Все треки извлечены точно

Конец отчёта

==== Контрольная сумма отчёта B05BFA054B403A7970E3ED46F8093F841ABDC812D1964E48AE1D26BC50A57DEB ====

REM GENRE “Classic Rock”
REM DATE 1982
REM DISCID 0D120813
REM COMMENT “ExactAudioCopy v1.1”
PERFORMER “Nazareth”
TITLE “2XS”
FILE “Nazareth – 1982 – 2XS [2002 Eagle Records, EAMCD141].flac” WAVE
TRACK 01 AUDIO
TITLE “Love Leads To Madness”
PERFORMER “Nazareth”
INDEX 01 00:00:00
TRACK 02 AUDIO
TITLE “Boys In The Band”
PERFORMER “Nazareth”
INDEX 00 04:04:58
INDEX 01 04:06:41
TRACK 03 AUDIO
TITLE “You Love Another”
PERFORMER “Nazareth”
INDEX 00 07:10:58
INDEX 01 07:12:44
TRACK 04 AUDIO
TITLE “Gatecrash”
PERFORMER “Nazareth”
INDEX 00 11:08:41
INDEX 01 11:10:06
TRACK 05 AUDIO
TITLE “Games”
PERFORMER “Nazareth”
INDEX 01 14:29:48
TRACK 06 AUDIO
TITLE “Back To The Trenches”
PERFORMER “Nazareth”
INDEX 00 19:16:33
INDEX 01 19:18:15
TRACK 07 AUDIO
TITLE “Dream On”
PERFORMER “Nazareth”
INDEX 00 23:17:63
INDEX 01 23:19:45
TRACK 08 AUDIO
TITLE “Lonley In The Night”
PERFORMER “Nazareth”
INDEX 00 26:44:16
INDEX 01 26:45:73
TRACK 09 AUDIO
TITLE “Preservation”
PERFORMER “Nazareth”
INDEX 00 31:06:10
INDEX 01 31:07:67
TRACK 10 AUDIO
TITLE “Take The Rap”
PERFORMER “Nazareth”
INDEX 00 35:09:47
INDEX 01 35:11:45
TRACK 11 AUDIO
TITLE “Mexico”
PERFORMER “Nazareth”
INDEX 00 37:51:49
INDEX 01 37:53:31
TRACK 12 AUDIO
TITLE “Dream On [*][single edit]”
PERFORMER “Nazareth”
INDEX 00 40:42:10
INDEX 01 40:47:13
TRACK 13 AUDIO
TITLE “Juicy Lucy [*][alternate edit]”
PERFORMER “Nazareth”
INDEX 00 44:11:13
INDEX 01 44:12:68
TRACK 14 AUDIO
TITLE “Games [*][alternate edit]”
PERFORMER “Nazareth”
INDEX 00 48:21:42
INDEX 01 48:23:25
TRACK 15 AUDIO
TITLE “You Love Another [*][alternate edit]”
PERFORMER “Nazareth”
INDEX 00 53:10:07
INDEX 01 53:11:64
TRACK 16 AUDIO
TITLE “Love Leads To Madness [*][alternate single version]”
PERFORMER “Nazareth”
INDEX 00 56:30:50
INDEX 01 56:32:12
TRACK 17 AUDIO
TITLE “Dream On [*][mono]”
PERFORMER “Nazareth”
INDEX 00 60:12:21
INDEX 01 60:13:58
TRACK 18 AUDIO
TITLE “Back To The Trenches [*][extended version]”
PERFORMER “Nazareth”
INDEX 00 63:38:16
INDEX 01 63:39:73
TRACK 19 AUDIO
TITLE “Love Leads To Madness [*][alternate extended version]”
PERFORMER “Nazareth”
INDEX 00 69:42:41
INDEX 01 69:44:23


Leave a Reply

Your email address will not be published. Required fields are marked *

This site uses Akismet to reduce spam. Learn how your comment data is processed.