Naxareth – Exercises (Remastered Japanese Edition)




Artist: Naxareth
Year: 1972/2006
Genre: Rock
Notes: Discogs
Add. Notes: Remastered Japanese Edition
Cover incl.: Yes
Encoder: FLAC
Bitrate: ~900 kBit/s (44.1 kHz/16 Bit/s)
Log & Cue incl.: Yes
Size: 332 MB
Password: “slam” (without ” “)


All Downloads/Hosters are compatible

Download 1
KatFile.com
Rapidgator.net
Turbobit.net
FileFactory.com
Download 2
KatFile.com
Rapidgator.net
Turbobit.net
FileFactory.com

Tracklist:

1 - I Will Not Be Led - 3:04
2 - Cat's Eye, Apple Pie - 3:02
3 - In My Time - 3:29
4 - Woke Up This Morning - 3:14
5 - Called Her Name - 4:25
6 - Fool About You - 2:46
7 - Love Now You're Gone - 2:26
8 - Madelaine - 5:55
9 - Sad Song - 2:14
10 - 1692 (Glencoe Massacre) - 4:00
Bonus Tracks
11 - If You See My Baby - 2:59
12 - Woke Up This Morning -
Alternate Edit Version- - 3:31
13 - Love Now You're Gone -
Alternate Edit Version- - 3:17
14 - 1692 (Glencoe Massacre) -
Alternate Edit Version- - 
3:25

EAC-Log, CUE-Sheed & NFO:

Click to open spoiler
Exact Audio Copy V1.0 beta 6 from 9. April 2015

EAC extraction logfile from 22. April 2015, 18:30

Nazareth / Exercises (AIRAC-1201)

Used drive : PLEXTOR DVDR PX-891SA Adapter: 1 ID: 0

Read mode : Secure
Utilize accurate stream : Yes
Defeat audio cache : Yes
Make use of C2 pointers : No

Read offset correction : 6
Overread into Lead-In and Lead-Out : No
Fill up missing offset samples with silence : Yes
Delete leading and trailing silent blocks : No
Null samples used in CRC calculations : Yes
Used interface : Native Win32 interface for Win NT & 2000

Used output format : User Defined Encoder
Selected bitrate : 1024 kBit/s
Quality : High
Add ID3 tag : No
Command line compressor : C:\Program Files\Exact Audio Copy\Flac\flac.exe
Additional command line options : -V -8 -T “Genre=%genre%” -T “Artist=%artist%” -T “Title=%title%” -T “Album=%albumtitle%” -T “Date=%year%” -T “Tracknumber=%tracknr%” -T “Comment=%comment%” %source%

TOC of the extracted CD

Track | Start | Length | Start sector | End sector
———————————————————
1 | 0:00.00 | 3:04.61 | 0 | 13860
2 | 3:04.61 | 3:01.53 | 13861 | 27488
3 | 6:06.39 | 3:28.60 | 27489 | 43148
4 | 9:35.24 | 3:14.46 | 43149 | 57744
5 | 12:49.70 | 4:24.50 | 57745 | 77594
6 | 17:14.45 | 2:46.08 | 77595 | 90052
7 | 20:00.53 | 2:26.03 | 90053 | 101005
8 | 22:26.56 | 5:55.03 | 101006 | 127633
9 | 28:21.59 | 2:13.50 | 127634 | 137658
10 | 30:35.34 | 3:59.65 | 137659 | 155648
11 | 34:35.24 | 2:58.60 | 155649 | 169058
12 | 37:34.09 | 3:31.48 | 169059 | 184931
13 | 41:05.57 | 3:17.13 | 184932 | 199719
14 | 44:22.70 | 3:24.73 | 199720 | 215092

Range status and errors

Selected range

Filename H:\dafnaplus\Nazareth\1972 Exercises\Nazareth – Exercises (AIRAC-1201).wav

Peak level 96.6 %
Extraction speed 7.8 X
Range quality 100.0 %
Test CRC DD81E10E
Copy CRC DD81E10E
Copy OK

No errors occurred

AccurateRip summary

Track 1 accurately ripped (confidence 2) [0784DA1E] (AR v2)
Track 2 accurately ripped (confidence 2) [AF690BA9] (AR v2)
Track 3 accurately ripped (confidence 2) [0209F7EC] (AR v2)
Track 4 accurately ripped (confidence 2) [97E849C1] (AR v2)
Track 5 accurately ripped (confidence 2) [B12655E0] (AR v2)
Track 6 accurately ripped (confidence 2) [0C58297C] (AR v2)
Track 7 accurately ripped (confidence 2) [983A59EE] (AR v2)
Track 8 accurately ripped (confidence 2) [93E24035] (AR v2)
Track 9 accurately ripped (confidence 2) [D3AE8CE8] (AR v2)
Track 10 accurately ripped (confidence 2) [5E5BFBD0] (AR v2)
Track 11 accurately ripped (confidence 2) [A419C5FB] (AR v2)
Track 12 accurately ripped (confidence 2) [C78411CA] (AR v2)
Track 13 accurately ripped (confidence 2) [839C8945] (AR v2)
Track 14 accurately ripped (confidence 2) [20FDAC73] (AR v2)

All tracks accurately ripped

End of status report

—- CUETools DB Plugin V2.1.6

[CTDB TOCID: TPKkUSHjU8AXQ5U.HCHUXhioAwU-] found
Submit result: already submitted
Track | CTDB Status
1 | (3/3) Accurately ripped
2 | (3/3) Accurately ripped
3 | (3/3) Accurately ripped
4 | (3/3) Accurately ripped
5 | (3/3) Accurately ripped
6 | (3/3) Accurately ripped
7 | (3/3) Accurately ripped
8 | (3/3) Accurately ripped
9 | (3/3) Accurately ripped
10 | (3/3) Accurately ripped
11 | (3/3) Accurately ripped
12 | (3/3) Accurately ripped
13 | (3/3) Accurately ripped
14 | (3/3) Accurately ripped

==== Log checksum C9CAD1ED43F26932BEE647071455EA82AB1C15A0DA85E7E4A6712281FFBD9568 ====

REM GENRE Rock
REM DATE 2006
REM DISCID C50B330E
REM COMMENT “ExactAudioCopy v1.0b6”
PERFORMER “Nazareth”
TITLE “Exercises (AIRAC-1201)”
FILE “Nazareth – Exercises (AIRAC-1201).flac” WAVE
TRACK 01 AUDIO
TITLE “I Will Not Be Led”
PERFORMER “Nazareth”
ISRC GBCBR0402619
INDEX 01 00:00:00
TRACK 02 AUDIO
TITLE “Cat’s Eye, Apple Pie”
PERFORMER “Nazareth”
ISRC GBCBR0402620
INDEX 01 03:04:61
TRACK 03 AUDIO
TITLE “In My Time”
PERFORMER “Nazareth”
ISRC GBCBR0402621
INDEX 01 06:06:39
TRACK 04 AUDIO
TITLE “Woke Up This Morning”
PERFORMER “Nazareth”
ISRC GBCBR0402622
INDEX 01 09:35:24
TRACK 05 AUDIO
TITLE “Called Her Name”
PERFORMER “Nazareth”
ISRC GBCBR0402623
INDEX 01 12:49:70
TRACK 06 AUDIO
TITLE “Fool About You”
PERFORMER “Nazareth”
ISRC GBCBR0402624
INDEX 01 17:14:45
TRACK 07 AUDIO
TITLE “Love Now You’re Gone”
PERFORMER “Nazareth”
ISRC GBCBR0402625
INDEX 01 20:00:53
TRACK 08 AUDIO
TITLE “Madelaine”
PERFORMER “Nazareth”
ISRC GBCBR0402626
INDEX 01 22:26:56
TRACK 09 AUDIO
TITLE “Sad Song”
PERFORMER “Nazareth”
ISRC GBCBR0402627
INDEX 01 28:21:59
TRACK 10 AUDIO
TITLE “1692 (Glencoe Massacre)”
PERFORMER “Nazareth”
ISRC GBCBR0402628
INDEX 01 30:35:34
TRACK 11 AUDIO
TITLE “If You See My Baby”
PERFORMER “Nazareth”
ISRC GBCBR0402629
INDEX 00 34:30:00
INDEX 01 34:35:24
TRACK 12 AUDIO
TITLE “Woke Up This Morning (Alternate Edit Version)”
PERFORMER “Nazareth”
ISRC GBCBR0402630
INDEX 01 37:34:09
TRACK 13 AUDIO
TITLE “Love Now You’re Gone (Alternate Edit Version)”
PERFORMER “Nazareth”
ISRC GBCBR0402631
INDEX 01 41:05:57
TRACK 14 AUDIO
TITLE “1692 (Glencoe Massacre) (Alternate Edit Version)”
PERFORMER “Nazareth”
ISRC GBCBR0402632
INDEX 01 44:22:70


Leave a Reply

Your email address will not be published. Required fields are marked *

This site uses Akismet to reduce spam. Learn how your comment data is processed.