Myrkur – Folkesange




No Cover available


Artist: Myrkur
Year: 2020
Genre: Rock
Notes: Discogs
Add. Notes:
Watch Songs on: YouTube
Cover incl.: Yes
Encoder: FLAC
Bitrate: ~700 kBit/s (44.1 kHz/16 Bit/s)
Log & Cue incl.: Yes/Yes
Size: 259,7 MB
Password: “slam” (without ” “)


All Downloads/Hosters are compatible

Download 1
KatFile.com
Turbobit.net
Rapidgator.net
FileFactory.com
Download 2
KatFile.com
Turbobit.net
Rapidgator.net
FileFactory.com

Tracklist:

01. Ella (3:55)
02. Fager som en Ros (2:51)
03. Leaves of Yggdrasil (4:00)
04. Ramund (3:29)
05. Tor i Helheim (7:10)
06. Svea (3:26)
07. Harpens Kraft (3:19)
08. Gammelkäring (3:29)
09. House Carpenter (3:38)
10. Reiar (3:46)
11. Gudernes Vilje (3:57)
12. Vinter (3:59)

EAC-Log, CUE-Sheed & NFO:

Click to open spoiler
CUE Corrector v. 8.3.6 / b. 968 (Mar. 14, 2020)
————————————————————————————————————————————————————————————————————————
Myrkur / Folkesange

Folder: Myrkur – 2020 – Folkesange [FLAC]
Audio files:
01 Ella.flac [03:54.933; FLAC • 797 kbps • 16 bit \ 44100 Hz • stereo; 22,33 MB (23 413 320 B)]
02 Fager som en Ros.flac [02:50.813; FLAC • 941 kbps • 16 bit \ 44100 Hz • stereo; 19,17 MB (20 104 059 B)]
03 Leaves of Yggdrasil.flac [04:00.347; FLAC • 784 kbps • 16 bit \ 44100 Hz • stereo; 22,46 MB (23 554 901 B)]
04 Ramund.flac [03:28.520; FLAC • 796 kbps • 16 bit \ 44100 Hz • stereo; 19,81 MB (20 771 794 B)]
05 Tor i Helheim.flac [07:10.227; FLAC • 723 kbps • 16 bit \ 44100 Hz • stereo; 37,12 MB (38 922 505 B)]
06 Svea.flac [03:26.320; FLAC • 813 kbps • 16 bit \ 44100 Hz • stereo; 20,02 MB (20 990 900 B)]
07 Harpens Kraft.flac [03:19.227; FLAC • 825 kbps • 16 bit \ 44100 Hz • stereo; 19,60 MB (20 547 800 B)]
08 Gammelkäring.flac [03:28.773; FLAC • 686 kbps • 16 bit \ 44100 Hz • stereo; 17,09 MB (17 924 423 B)]
09 House Carpenter.flac [03:38.120; FLAC • 882 kbps • 16 bit \ 44100 Hz • stereo; 22,95 MB (24 065 775 B)]
10 Reiar.flac [03:46.453; FLAC • 765 kbps • 16 bit \ 44100 Hz • stereo; 20,67 MB (21 672 045 B)]
11 Gudernes Vilje.flac [03:56.933; FLAC • 766 kbps • 16 bit \ 44100 Hz • stereo; 21,64 MB (22 688 956 B)]
12 Vinter.flac [03:58.560; FLAC • 593 kbps • 16 bit \ 44100 Hz • stereo; 16,88 MB (17 704 184 B)]

Accuracy: -m3

File 01 Ella – 100% CDDA [03:54:70]
File 02 Fager som en Ros – 100% CDDA [02:50:61]
File 03 Leaves of Yggdrasil – 99% CDDA [04:00:26]
File 04 Ramund – 100% CDDA [03:28:39]
File 05 Tor i Helheim – 100% CDDA [07:10:17]
File 06 Svea – 99% CDDA [03:26:24]
File 07 Harpens Kraft – 100% CDDA [03:19:17]
File 08 Gammelkäring – 100% CDDA [03:28:58]
File 09 House Carpenter – 100% CDDA [03:38:09]
File 10 Reiar – 100% CDDA [03:46:34]
File 11 Gudernes Vilje – 99% CDDA [03:56:70]
File 12 Vinter – 100% CDDA [03:58:42]
————— Summary: —————
These tracks looks like CDDA with probability 100%.
————————————————————————————————————————————————————————————————————————

ANALYZER:
auCDtect: CD records authenticity detector, version 0.8.2
Copyright (c) 2004 Oleg Berngardt. All rights reserved.
Copyright (c) 2004 Alexander Djourik. All rights reserved.

Time elapsed: 36.3 s
Log created at March 20, 2020 02:55:36

=== C83C2D45BC700296F3FB9386D8245500AA8688877ABF71487D48E7B419BFA535 ===

[свернуть]
CUETools

[CUETools log; Date: 20.03.2020 2:54:25; Version: 2.1.6]
Padded some input files to a frame boundary.
[CTDB TOCID: sJbjePZswZtvvUJ3UZRIC1B.Sbg-] disk not present in database.
[AccurateRip ID: 00150534-00c4b332-a80b030c] disk not present in database.

Track Peak [ CRC32 ] [W/O NULL]
— 88,6 [7C1995A1] [E8A87109]
01 88,1 [15E1C007] [97CE2642]
02 88,6 [670178FF] [0707D758]
03 88,1 [20482915] [5F8DBBB4]
04 88,1 [167CFE69] [87A9CEF8]
05 88,1 [4F3C7F0C] [CFABCDA6]
06 88,1 [BDB758AB] [C4EFA22A]
07 88,1 [6A81C1E3] [27F0F06D]
08 85,6 [2F8970A1] [AA7BA20A]
09 88,2 [7250DCF1] [150597DA]
10 88,1 [92B413A6] [49FC2796]
11 88,1 [6A30A27C] [B19162F7]
12 88,1 [906021E3] [3CA0957A]

[свернуть]
DR

foobar2000 1.5.1 / Замер динамического диапазона (DR) 1.1.1
Дата отчёта: 2020-03-20 02:53:49

——————————————————————————–
Анализ: Myrkur / Folkesange
——————————————————————————–

DR Пики RMS Продолжительность трека
——————————————————————————–
DR7 -1.09 дБ -11.75 дБ 3:55 01-Ella
DR7 -1.04 дБ -10.64 дБ 2:51 02-Fager som en Ros
DR8 -1.10 дБ -11.88 дБ 4:00 03-Leaves of Yggdrasil
DR7 -1.09 дБ -9.69 дБ 3:29 04-Ramund
DR8 -1.10 дБ -11.75 дБ 7:10 05-Tor i Helheim
DR7 -1.10 дБ -9.58 дБ 3:26 06-Svea
DR8 -1.10 дБ -10.36 дБ 3:19 07-Harpens Kraft
DR9 -1.35 дБ -13.63 дБ 3:29 08-Gammelkäring
DR7 -1.09 дБ -9.93 дБ 3:38 09-House Carpenter
DR8 -1.10 дБ -11.70 дБ 3:46 10-Reiar
DR8 -1.10 дБ -11.70 дБ 3:57 11-Gudernes Vilje
DR10 -1.10 дБ -15.18 дБ 3:59 12-Vinter
——————————————————————————–

Количество треков: 12
Реальные значения DR: DR8

Частота: 44100 Гц
Каналов: 2
Разрядность: 16
Битрейт: 557 кбит/с
Кодек: FLAC
================================================================================


Leave a Reply

Your email address will not be published. Required fields are marked *

Enter the text from the image below
 

This site uses Akismet to reduce spam. Learn how your comment data is processed.