My Dying Bride – The Ghost of Orion




No Cover available


Artist: My Dying Bride
Year: 2020
Genre: Metal
Notes: Discogs
Add. Notes:
Watch Songs on: YouTube
Cover incl.: Yes
Encoder: FLAC
Bitrate: ~900 kBit/s (44.1 kHz/16 Bit/s)
Log & Cue incl.: Yes/Yes
Size: 372,96 MB
Password: “slam” (without ” “)


All Downloads/Hosters are compatible

Download 1
KatFile.com
Turbobit.net
Rapidgator.net
FileFactory.com
Download 2
KatFile.com
Turbobit.net
Rapidgator.net
FileFactory.com

Tracklist:

1 Your Broken Shore 7:41
2 To Outlive The Gods 7:55
3 Tired Of Tears 8:35
4 The Solace 5:51
5 The Long Black Land 9:59
6 The Ghost Of Orion 3:30
7 The Old Earth 10:31
8 Your Woven Shore 2:09

EAC-Log, CUE-Sheed & NFO:

Click to open spoiler
Exact Audio Copy V1.3 from 2. September 2016

EAC extraction logfile from 16. March 2020, 21:56

My Dying Bride / The Ghost of Orion

Used drive : TSSTcorpCDDVDW SH-222BB Adapter: 1 ID: 0

Read mode : Secure
Utilize accurate stream : Yes
Defeat audio cache : Yes
Make use of C2 pointers : No

Read offset correction : 6
Overread into Lead-In and Lead-Out : No
Fill up missing offset samples with silence : Yes
Delete leading and trailing silent blocks : No
Null samples used in CRC calculations : Yes
Used interface : Installed external ASPI interface

Used output format : Internal WAV Routines
Sample format : 44.100 Hz; 16 Bit; Stereo

TOC of the extracted CD

Track | Start | Length | Start sector | End sector
———————————————————
1 | 0:00.00 | 7:43.01 | 0 | 34725
2 | 7:43.01 | 7:56.74 | 34726 | 70499
3 | 15:40.00 | 8:37.27 | 70500 | 109301
4 | 24:17.27 | 5:52.54 | 109302 | 135755
5 | 30:10.06 | 10:01.05 | 135756 | 180835
6 | 40:11.11 | 3:31.68 | 180836 | 196728
7 | 43:43.04 | 10:32.59 | 196729 | 244187
8 | 54:15.63 | 2:09.73 | 244188 | 253935

Range status and errors

Selected range

Filename D:\!image_lossless_2020\My Dying Bride 2020 The Ghost of Orion\My Dying Bride – The Ghost of Orion.wav

Peak level 98.2 %
Extraction speed 2.0 X
Range quality 100.0 %
Test CRC 9AB23EB1
Copy CRC 9AB23EB1
Copy OK

No errors occurred

AccurateRip summary

Track 1 not present in database
Track 2 not present in database
Track 3 not present in database
Track 4 not present in database
Track 5 not present in database
Track 6 not present in database
Track 7 not present in database
Track 8 not present in database

None of the tracks are present in the AccurateRip database

End of status report

—- CUETools DB Plugin V2.1.6

[CTDB TOCID: qcKR4p_N6nX1BUiSoZJOxkSmMDM-] found
Submit result: qcKR4p_N6nX1BUiSoZJOxkSmMDM- has been confirmed
Track | CTDB Status
1 | (33/33) Accurately ripped
2 | (33/33) Accurately ripped
3 | (33/33) Accurately ripped
4 | (33/33) Accurately ripped
5 | (33/33) Accurately ripped
6 | (33/33) Accurately ripped
7 | (33/33) Accurately ripped
8 | (33/33) Accurately ripped

==== Log checksum 315313E3FB97DF29B2288D149ECF3593F649024672E5C484BE4D79BBD7D65449 ====

REM GENRE “Doom Metal”
REM DATE 2020
REM DISCID 690D3908
REM COMMENT “ExactAudioCopy v1.3”
PERFORMER “My Dying Bride”
TITLE “The Ghost of Orion”
REM COMPOSER “”
FILE “My Dying Bride – The Ghost of Orion.flac” WAVE
TRACK 01 AUDIO
TITLE “Your Broken Shore”
PERFORMER “My Dying Bride”
REM COMPOSER “”
INDEX 01 00:00:00
TRACK 02 AUDIO
TITLE “To Outlive the Gods”
PERFORMER “My Dying Bride”
REM COMPOSER “”
INDEX 00 07:41:19
INDEX 01 07:43:01
TRACK 03 AUDIO
TITLE “Tired of Tears”
PERFORMER “My Dying Bride”
REM COMPOSER “”
INDEX 00 15:38:18
INDEX 01 15:40:00
TRACK 04 AUDIO
TITLE “The Solace”
PERFORMER “My Dying Bride”
REM COMPOSER “”
INDEX 00 24:15:45
INDEX 01 24:17:27
TRACK 05 AUDIO
TITLE “The Long Black Land”
PERFORMER “My Dying Bride”
REM COMPOSER “”
INDEX 00 30:08:24
INDEX 01 30:10:06
TRACK 06 AUDIO
TITLE “The Ghost of Orion”
PERFORMER “My Dying Bride”
REM COMPOSER “”
INDEX 00 40:09:29
INDEX 01 40:11:11
TRACK 07 AUDIO
TITLE “The Old Earth”
PERFORMER “My Dying Bride”
REM COMPOSER “”
INDEX 00 43:41:22
INDEX 01 43:43:04
TRACK 08 AUDIO
TITLE “Your Woven Shore”
PERFORMER “My Dying Bride”
REM COMPOSER “”
INDEX 00 54:14:06
INDEX 01 54:15:63


Leave a Reply

Your email address will not be published. Required fields are marked *

Enter the text from the image below
 

This site uses Akismet to reduce spam. Learn how your comment data is processed.