Muse – The Resistance




[Total: 0    Average: 0/5]

Artist: Muse
Year: 2009
Genre: Rock
Notes: Discogs
Add. Notes:
Cover incl.: Yes
Encoder: FLAC
Bitrate: ~900 kBit/s (44.1 kHz/16 Bit/s)
Log & Cue incl.: Yes
Size: 346,73 MB
Password: “slam” (without ” “)


All Downloads/Hosters are compatible

Download 1
Share-online.biz
KatFile.com
Rapidgator.net
DoUploads.net
Download 2
Share-online.biz
KatFile.com
Rapidgator.net
DoUploads.net

Tracklist:

1 Uprising 5:03
2 Resistance 5:47
3 Undisclosed Desires 3:56
4 United States Of Eurasia (+Collateral Damage)
 5:48
5 Guiding Light 4:13
6 Unnatural Selection 6:55
7 MK Ultra 4:06
8 I Belong To You (+Mon Cœur S'Ouvre A Ta 
Voix) 5:39
9 Exogenesis: Symphony Part 1 (Overture)
 4:18
10 Exogenesis: Symphony Part 2 (Cross-
Pollination) 3:56
11 Exogenesis: Symphony Part 3 (Redemption)
 4:37

EAC-Log, CUE-Sheed & NFO:

Click to open spoiler
Exact Audio Copy V0.99 prebeta 5 from 4. May 2009

Отчёт EAC об извлечении, выполненном 24. сентября 2009, 16:44

Muse / The Resistance [Japanese – WPCR-13629]

Дисковод: PLEXTOR CD-R PREMIUM2 Adapter: 2 ID: 0

Режим чтения : Достоверность
Использование точного потока : Да
Отключение кэша аудио : Да
Использование указателей C2 : Нет

Коррекция смещения при чтении : 30
Способность читать области Lead-in и Lead-out : Нет
Заполнение пропущенных сэмплов тишиной : Да
Удаление блоков с тишиной в начале и конце : Нет
При вычислениях CRC использовались нулевые сэмплы : Нет
Интерфейс : Установленный внешний ASPI-интерфейс

Выходной формат : Внутренние WAV-операции
Формат сэмплов : 44.100 Гц; 16 бит; стерео

TOC извлечённого CD

Трек | Старт | Длительность | Начальный сектор | Конечный сектор
———————————————————————
1 | 0:00.00 | 5:02.62 | 0 | 22711
2 | 5:02.62 | 5:46.52 | 22712 | 48713
3 | 10:49.39 | 3:56.04 | 48714 | 66417
4 | 14:45.43 | 5:47.61 | 66418 | 92503
5 | 20:33.29 | 4:13.34 | 92504 | 111512
6 | 24:46.63 | 6:54.72 | 111513 | 142634
7 | 31:41.60 | 4:06.07 | 142635 | 161091
8 | 35:47.67 | 5:38.61 | 161092 | 186502
9 | 41:26.53 | 4:18.33 | 186503 | 205885
10 | 45:45.11 | 3:56.12 | 205886 | 223597
11 | 49:41.23 | 4:37.02 | 223598 | 244374

Характеристики диапазона извлечения и сообщения об ошибках

Выбранный диапазон

Имя файла G:\MUSIC\MUSE – The Resistance [WPCR-13629]\Muse – The Resistance [Japanese – WPCR-13629].wav

Пиковый уровень 100.0 %
Качество диапазона 100.0 %
CRC копии 91CFA2AE
Копирование… OK

Ошибок не произошло

Конец отчёта

REM GENRE “Progressive Rock”
REM DATE 2009
REM DISCID A90CBA0B
REM COMMENT “ExactAudioCopy v0.99pb5”
REM ACCURATERIPID 0016fa9e-00c672ab-a90cba0b
PERFORMER “Muse”
TITLE “The Resistance”
FILE “Muse – The Resistance [WPCR-13629] [2009].flac” WAVE
TRACK 01 AUDIO
TITLE “Uprising”
PERFORMER “Muse”
INDEX 01 00:00:00
TRACK 02 AUDIO
TITLE “Resistance”
PERFORMER “Muse”
INDEX 01 05:02:62
TRACK 03 AUDIO
TITLE “Undisclosed Desires”
PERFORMER “Muse”
INDEX 01 10:49:39
TRACK 04 AUDIO
TITLE “United States Of Eurasia (+Collateral Damage)”
PERFORMER “Muse”
INDEX 00 14:45:32
INDEX 01 14:45:43
TRACK 05 AUDIO
TITLE “Guiding Light”
PERFORMER “Muse”
INDEX 00 20:33:18
INDEX 01 20:33:29
TRACK 06 AUDIO
TITLE “Unnatural Selection”
PERFORMER “Muse”
INDEX 00 24:46:52
INDEX 01 24:46:63
TRACK 07 AUDIO
TITLE “Mk Ultra”
PERFORMER “Muse”
INDEX 01 31:41:60
TRACK 08 AUDIO
TITLE “I Belong To You (+Mon Coeur S’ouvre A Ta Voix)”
PERFORMER “Muse”
INDEX 01 35:47:67
TRACK 09 AUDIO
TITLE “Exogenesis: Symphony Part 1 (Overture)”
PERFORMER “Muse”
INDEX 00 41:26:42
INDEX 01 41:26:53
TRACK 10 AUDIO
TITLE “Exogenesis: Symphony Part 2 (Cross-Pollination)”
PERFORMER “Muse”
INDEX 01 45:45:11
TRACK 11 AUDIO
TITLE “Exogenesis: Symphony Part 3 (Redemption)”
PERFORMER “Muse”
INDEX 00 49:41:12
INDEX 01 49:41:23


Spread the Download

Leave a Reply

Your email address will not be published. Required fields are marked *

Enter the text from the image below
 

This site uses Akismet to reduce spam. Learn how your comment data is processed.