Muse – The 2nd Law




Artist: Muse
Year: 2012
Genre: Rock
Notes: Discogs
Add. Notes:
Encoder: FLAC
Bitrate: ~900 kBit/s (VBR)
Size: 437,79 MB
Password: “slam” (without ” “)


Tracklist:

1. Supremacy. 4:55
2. Madness. 4:40
3. Panic Station. 3:04
4. Prelude. 0:58
5. Survival. 4:17
6. Follow Me. 3:51
7. Animals. 4:23
8. Explorers. 5:47
9. Big Freeze. 4:40
10. Save Me. 5:09
11. Liquid State. 3:03
12. The 2nd Law: Unsustainable. 3:48
13. The 2nd Law: Isolated System. 5:00

EAC-Log, CUE-Sheed & NFO:

Click to open spoiler
Exact Audio Copy V1.1 from 23. June 2015

Отчёт EAC об извлечении, выполненном 20. сентября 2015, 22:42

Muse / The 2nd Law

Дисковод: ASUS BW-12B1ST Adapter: 1 ID: 0

Режим чтения : Достоверность
Использование точного потока : Да
Отключение кэша аудио : Да
Использование указателей C2 : Нет

Коррекция смещения при чтении : 6
Способность читать области Lead-in и Lead-out : Нет
Заполнение пропущенных сэмплов тишиной : Да
Удаление блоков с тишиной в начале и конце : Нет
При вычислениях CRC использовались нулевые сэмплы : Да
Интерфейс : Встроенный Win32-интерфейс для Win NT/2000

Выходной формат : Внутренние WAV-операции
Формат сэмплов : 44.100 Гц; 16 бит; стерео

TOC извлечённого CD

Трек | Старт | Длительность | Начальный сектор | Конечный сектор
———————————————————————
1 | 0:00.00 | 4:55.28 | 0 | 22152
2 | 4:55.28 | 4:39.52 | 22153 | 43129
3 | 9:35.05 | 3:04.15 | 43130 | 56944
4 | 12:39.20 | 0:57.69 | 56945 | 61288
5 | 13:37.14 | 4:17.31 | 61289 | 80594
6 | 17:54.45 | 3:50.69 | 80595 | 97913
7 | 21:45.39 | 4:22.61 | 97914 | 117624
8 | 26:08.25 | 5:46.38 | 117625 | 143612
9 | 31:54.63 | 4:39.68 | 143613 | 164605
10 | 36:34.56 | 5:08.61 | 164606 | 187766
11 | 41:43.42 | 3:02.71 | 187767 | 201487
12 | 44:46.38 | 3:48.05 | 201488 | 218592
13 | 48:34.43 | 4:59.74 | 218593 | 241091

Характеристики диапазона извлечения и сообщения об ошибках

Выбранный диапазон

Имя файла D:\EAC\Muse – 2012 – The 2nd Law (Warner Bros. Records, Helium 3 – WPZR-30444-5)\Muse – 2012 – The 2nd Law.wav

Пиковый уровень 100.0 %
Скорость извлечения 3.2 X
Качество диапазона 100.0 %
CRC теста 237D3C5F
CRC копии 237D3C5F
Копирование… OK

Ошибок не произошло

AccurateRip: сводка

Трек 1 : извлечено точно (доверие 200) [934B42F2] (AR v2)
Трек 2 : извлечено точно (доверие 200) [6D9A9F65] (AR v2)
Трек 3 : извлечено точно (доверие 200) [5C64F0F9] (AR v2)
Трек 4 : извлечено точно (доверие 200) [7A23F64C] (AR v2)
Трек 5 : извлечено точно (доверие 200) [EE293B9E] (AR v2)
Трек 6 : извлечено точно (доверие 200) [7B18CFAA] (AR v2)
Трек 7 : извлечено точно (доверие 200) [F23B9E8B] (AR v2)
Трек 8 : извлечено точно (доверие 200) [8559486F] (AR v2)
Трек 9 : извлечено точно (доверие 200) [273438EF] (AR v2)
Трек 10 : извлечено точно (доверие 200) [DD261E07] (AR v2)
Трек 11 : извлечено точно (доверие 200) [F9518990] (AR v2)
Трек 12 : извлечено точно (доверие 200) [E8DDB25C] (AR v2)
Трек 13 : извлечено точно (доверие 200) [A97042C1] (AR v2)

Все треки извлечены точно

Конец отчёта

—- CUETools DB Plugin V2.1.6

[CTDB TOCID: OGrhMLCSnf4uZxcZGMoLu5S2XiU-] found
Submit result: already submitted
Track | CTDB Status
1 | (1429/1429) Accurately ripped
2 | (1427/1429) Accurately ripped
3 | (1429/1429) Accurately ripped
4 | (1429/1429) Accurately ripped
5 | (1428/1429) Accurately ripped
6 | (1427/1429) Accurately ripped
7 | (1428/1429) Accurately ripped
8 | (1428/1429) Accurately ripped
9 | (1428/1429) Accurately ripped
10 | (1425/1429) Accurately ripped, or (2/1429) differs in 478 samples @00:07:40-00:07:41,01:00:60-01:00:61
11 | (1428/1429) Accurately ripped
12 | (1426/1429) Accurately ripped
13 | (1426/1429) Accurately ripped

==== Контрольная сумма отчёта A2AB949BB2AE860DD8999ECE11061EA04EA013018A8824C229210897FA91CF26 ====

REM GENRE Alternative
REM DATE 2012
REM DISCID C60C8E0D
REM COMMENT “ExactAudioCopy v1.1”
CATALOG 4943674124541
PERFORMER “Muse”
TITLE “The 2nd Law”
FILE “Muse – 2012 – The 2nd Law.flac” WAVE
TRACK 01 AUDIO
TITLE “Supremacy”
PERFORMER “Muse”
ISRC GBAHT1200389
INDEX 01 00:00:00
TRACK 02 AUDIO
TITLE “Madness”
PERFORMER “Muse”
ISRC GBAHT1200390
INDEX 01 04:55:28
TRACK 03 AUDIO
TITLE “Panic Station”
PERFORMER “Muse”
ISRC GBAHT1200391
INDEX 01 09:35:05
TRACK 04 AUDIO
TITLE “Prelude”
PERFORMER “Muse”
ISRC GBAHT1200392
INDEX 01 12:39:20
TRACK 05 AUDIO
TITLE “Survival”
PERFORMER “Muse”
ISRC GBAHT1200332
INDEX 01 13:37:14
TRACK 06 AUDIO
TITLE “Follow Me”
PERFORMER “Muse”
ISRC GBAHT1200393
INDEX 01 17:54:45
TRACK 07 AUDIO
TITLE “Animals”
PERFORMER “Muse”
ISRC GBAHT1200394
INDEX 01 21:45:39
TRACK 08 AUDIO
TITLE “Explorers”
PERFORMER “Muse”
ISRC GBAHT1200395
INDEX 01 26:08:25
TRACK 09 AUDIO
TITLE “Big Freeze”
PERFORMER “Muse”
ISRC GBAHT1200396
INDEX 01 31:54:63
TRACK 10 AUDIO
TITLE “Save Me”
PERFORMER “Muse”
ISRC GBAHT1200397
INDEX 01 36:34:56
TRACK 11 AUDIO
TITLE “Liquid State”
PERFORMER “Muse”
ISRC GBAHT1200398
INDEX 01 41:43:42
TRACK 12 AUDIO
TITLE “The 2nd Law: Unsustainable”
PERFORMER “Muse”
ISRC GBAHT1200399
INDEX 01 44:46:38
TRACK 13 AUDIO
TITLE “The 2nd Law: Isolated System”
PERFORMER “Muse”
ISRC GBAHT1200400
INDEX 01 48:34:43

Leave a Reply

Your email address will not be published. Required fields are marked *

Enter the text from the image below
 

This site uses Akismet to reduce spam. Learn how your comment data is processed.