Muse – Showbiz (Japanese Edition)




No Cover available


Artist: Muse
Year: 1999/2006
Genre: Rock
Notes: Discogs
Add. Notes: Japanese Edition
Watch Songs on: YouTube
Cover incl.: Yes
Encoder: FLAC
Bitrate: ~900 kBit/s (44.1 kHz/16 Bit/s)
Log & Cue incl.: Yes/Yes
Size: 373,8 MB
Password: “slam” (without ” “)


All Downloads/Hosters are compatible

Download 1
KatFile.com
Turbobit.net
Rapidgator.net
FileFactory.com
Download 2
KatFile.com
Turbobit.net
Rapidgator.net
FileFactory.com

Tracklist:

1 Sunburn 
2 Muscle Museum 
3 Fillip 
4 Falling Down 
5 Cave 
6 Showbiz 
7 Unintended 
8 Uno 
9 Sober 
10 Spiral Static (Japan Bonus Track)
11 Escape 
12 Overdue 
13 Hate This & I'll Love You

EAC-Log, CUE-Sheed & NFO:

Click to open spoiler
Отчёт EAC об извлечении, выполненном 31. августа 2008, 17:29 для диска:
Muse / SHOWBIZ [Japanese – WPCR-12336]

Дисковод: PLEXTOR CD-R PREMIUM2 Adapter: 1 ID: 0
Режим чтения: Достоверный (C2: нет, Точный поток: да, Отключение кэша: да)
Коррекция смещения при чтении: 30
Способность читать области Lead-in и Lead-out : Да

Выходной формат: Внутренние WAV-операции
44.100 Гц; 16 бит; стерео

Другие параметры:
Заполнение пропущенных сэмплов тишиной : Да
Удаление блоков с тишиной в начале и конце : Нет
Встроенный Win32-интерфейс для Win NT/2000

Характеристики диапазона извлечения и сообщения об ошибках
Выбранный диапазон
Имя файла G:\audiophile music\other cool HQ music\MUSE – SHOWBIZ [WPCR-12336]\Muse – SHOWBIZ [WPCR-12336].wav

Пиковый уровень 99.2 %
Качество диапазона 100.0 %
CRC 724F57DF
Копирование… OK

Ошибок не произошло

Конец отчёта

REM GENRE “Alternative”
REM DATE 1999
REM DISCID 9F0CC40D
REM COMMENT “ExactAudioCopy v0.95b3”
REM ACCURATERIPID 001aa1e5-0109bcd9-9f0cc40d
PERFORMER “Muse”
TITLE “Showbiz”
FILE “Muse – Showbiz [WPCR-12336] (1999).flac” WAVE
TRACK 01 AUDIO
TITLE “Sunburn”
PERFORMER “Muse”
INDEX 01 00:00:00
TRACK 02 AUDIO
TITLE “Muscle Museum”
PERFORMER “Muse”
INDEX 01 03:54:47
TRACK 03 AUDIO
TITLE “Fillip”
PERFORMER “Muse”
INDEX 01 08:17:27
TRACK 04 AUDIO
TITLE “Falling Down”
PERFORMER “Muse”
INDEX 00 12:18:22
INDEX 01 12:19:05
TRACK 05 AUDIO
TITLE “Cave”
PERFORMER “Muse”
INDEX 01 16:52:65
TRACK 06 AUDIO
TITLE “Showbiz”
PERFORMER “Muse”
INDEX 01 21:38:52
TRACK 07 AUDIO
TITLE “Unintended”
PERFORMER “Muse”
INDEX 00 26:55:37
INDEX 01 26:55:60
TRACK 08 AUDIO
TITLE “Uno”
PERFORMER “Muse”
INDEX 01 30:52:55
TRACK 09 AUDIO
TITLE “Sober”
PERFORMER “Muse”
INDEX 01 34:31:25
TRACK 10 AUDIO
TITLE “Spiral Static”
PERFORMER “Muse”
INDEX 01 38:34:47
TRACK 11 AUDIO
TITLE “Escape”
PERFORMER “Muse”
INDEX 01 43:18:71
TRACK 12 AUDIO
TITLE “Overdue”
PERFORMER “Muse”
INDEX 01 46:50:39
TRACK 13 AUDIO
TITLE “Hate This & I’ll Love You”
PERFORMER “Muse”
INDEX 00 49:16:36
INDEX 01 49:16:59


Leave a Reply

Your email address will not be published. Required fields are marked *

Enter the text from the image below
 

This site uses Akismet to reduce spam. Learn how your comment data is processed.