Muse – Origin Of Symmetry




Artist: Muse
Year: 2001
Genre: Rock
Notes: Discogs
Add. Notes:
Encoder: FLAC
Bitrate: ~900 kBit/s (VBR)
Size: 373,93 MB
Password: “slam” (without ” “)


Tracklist:

1	New Born	6:03
2	Bliss	4:12
3	Space Dementia	6:20
4	Hyper Music	3:20
5	Plug In Baby	3:40
6	Citizen Erased	7:19
7	Micro Cuts	3:38
8	Screenager	4:20
9	Darkshines	4:47
10	Feeling Good	3:19
11	Megalomania	4:38

EAC-Log, CUE-Sheed & NFO:

Click to open spoiler
Отчёт EAC об извлечении, выполненном 7. февраля 2009, 22:01 для диска:
MUSE / ORIGIN OF SYMMETRY [WPCR-12560]

Дисковод: PLEXTOR CD-R PREMIUM2 Adapter: 1 ID: 0
Режим чтения: Достоверный (C2: нет, Точный поток: да, Отключение кэша: да)
Коррекция смещения при чтении: 30
Способность читать области Lead-in и Lead-out : Да

Выходной формат: Внутренние WAV-операции
44.100 Гц; 16 бит; стерео

Другие параметры:
Заполнение пропущенных сэмплов тишиной : Да
Удаление блоков с тишиной в начале и конце : Нет
Встроенный Win32-интерфейс для Win NT/2000

Характеристики диапазона извлечения и сообщения об ошибках
Выбранный диапазон
Имя файла F:\audiophile music\other cool HQ music\MUSE – ORIGIN OF SYMMETRY [WPCR-12560]\MUSE – ORIGIN OF SYMMETRY [WPCR-12560].wav

Пиковый уровень 99.8 %
Качество диапазона 100.0 %
CRC E28BD9DC
Копирование… OK

Ошибок не произошло

Конец отчёта

———————–

REM GENRE “Alternative”
REM DATE 2001
REM DISCID B00CEB0C
REM COMMENT “ExactAudioCopy v0.95b3”
REM ACCURATERIPID 0019ea38-00ee6b34-b00ceb0c
PERFORMER “Muse”
TITLE “Origin Of Symmetry”
FILE “Muse – Origin Of Symmetry [WPCR-12560] (2001).flac” WAVE
TRACK 01 AUDIO
TITLE “New Born”
PERFORMER “Muse”
INDEX 01 00:00:00
TRACK 02 AUDIO
TITLE “Bliss”
PERFORMER “Muse”
INDEX 00 06:03:32
INDEX 01 06:03:35
TRACK 03 AUDIO
TITLE “Space Dementia”
PERFORMER “Muse”
INDEX 01 10:16:00
TRACK 04 AUDIO
TITLE “Hyper Music”
PERFORMER “Muse”
INDEX 01 16:36:60
TRACK 05 AUDIO
TITLE “Plug In Baby”
PERFORMER “Muse”
INDEX 01 19:57:55
TRACK 06 AUDIO
TITLE “Citizen Erased”
PERFORMER “Muse”
INDEX 00 23:36:30
INDEX 01 23:38:12
TRACK 07 AUDIO
TITLE “Micro Cuts”
PERFORMER “Muse”
INDEX 01 30:57:22
TRACK 08 AUDIO
TITLE “Screenager”
PERFORMER “Muse”
INDEX 01 34:35:30
TRACK 09 AUDIO
TITLE “Dark Shines”
PERFORMER “Muse”
INDEX 01 38:55:70
TRACK 10 AUDIO
TITLE “Feeling Good”
PERFORMER “Muse”
INDEX 00 43:42:70
INDEX 01 43:43:52
TRACK 11 AUDIO
TITLE “Futurism”
PERFORMER “Muse”
INDEX 00 47:01:65
INDEX 01 47:02:50
TRACK 12 AUDIO
TITLE “Megalomania”
PERFORMER “Muse”
INDEX 01 50:29:52

Leave a Reply

Your email address will not be published. Required fields are marked *

Enter the text from the image below
 

This site uses Akismet to reduce spam. Learn how your comment data is processed.