Muse – Live At Rome Olympic Stadium




Artist: Muse
Year: 2013
Genre: Rock
Notes: Discogs
Add. Notes:
Cover incl.: Yes
Encoder: FLAC
Bitrate: ~1000 kBit/s (44.1 kHz/16 Bit/s)
Log & Cue incl.: Yes
Size: 598,78 MB
Password: “slam” (without ” “)


All Downloads/Hosters are compatible

Download 1
Turbobit.net
Rapidgator.net
KatFile.com
UploadRar.com
Download 2
Turbobit.net
Rapidgator.net
KatFile.com
UploadRar.com

Tracklist:

1 - Supremacy - 5:16
2 - Panic Station - 3:12
3 - Resistance - 5:32
4 - Hysteria - 5:06
5 - Animals - 4:21
6 - Knights Of Cydonia - 8:19
7 - Explorers - 5:54
8 - Follow Me - 3:52
9 - Madness - 4:37
10 - Guiding Light - 4:18
11 - Supermassive Black Hole - 4:05
12 - Uprising - 5:35
13 - Starlight - 4:27

EAC-Log, CUE-Sheed & NFO:

Click to open spoiler
Exact Audio Copy V1.1 from 23. June 2015

Отчёт EAC об извлечении, выполненном 21. сентября 2015, 1:37

Muse / Live At Rome Olympic Stadium

Дисковод: ASUS BW-12B1ST Adapter: 1 ID: 0

Режим чтения : Достоверность
Использование точного потока : Да
Отключение кэша аудио : Да
Использование указателей C2 : Нет

Коррекция смещения при чтении : 6
Способность читать области Lead-in и Lead-out : Нет
Заполнение пропущенных сэмплов тишиной : Да
Удаление блоков с тишиной в начале и конце : Нет
При вычислениях CRC использовались нулевые сэмплы : Да
Интерфейс : Встроенный Win32-интерфейс для Win NT/2000

Выходной формат : Внутренние WAV-операции
Формат сэмплов : 44.100 Гц; 16 бит; стерео

TOC извлечённого CD

Трек | Старт | Длительность | Начальный сектор | Конечный сектор
———————————————————————
1 | 0:00.00 | 5:14.31 | 0 | 23580
2 | 5:14.31 | 3:12.28 | 23581 | 38008
3 | 8:26.59 | 5:32.17 | 38009 | 62925
4 | 13:59.01 | 5:06.11 | 62926 | 85886
5 | 19:05.12 | 4:21.12 | 85887 | 105473
6 | 23:26.24 | 8:19.28 | 105474 | 142926
7 | 31:45.52 | 5:54.20 | 142927 | 169496
8 | 37:39.72 | 3:52.11 | 169497 | 186907
9 | 41:32.08 | 4:37.62 | 186908 | 207744
10 | 46:09.70 | 4:18.33 | 207745 | 227127
11 | 50:28.28 | 4:05.16 | 227128 | 245518
12 | 54:33.44 | 5:35.00 | 245519 | 270643
13 | 60:08.44 | 4:27.64 | 270644 | 290732

Характеристики диапазона извлечения и сообщения об ошибках

Выбранный диапазон

Имя файла D:\EAC\Muse – 2013 – Live At Rome Olympic Stadium (Warner Music Japan – WPZR-30505-6)\Muse – 2013 – Live At Rome Olympic Stadium.wav

Пиковый уровень 100.0 %
Скорость извлечения 3.7 X
Качество диапазона 99.9 %
CRC теста 5B14B5F1
CRC копии 5B14B5F1
Копирование… OK

Ошибок не произошло

AccurateRip: сводка

Трек 1 : извлечено точно (доверие 135) [73B390B5] (AR v2)
Трек 2 : извлечено точно (доверие 134) [EE82D824] (AR v2)
Трек 3 : извлечено точно (доверие 134) [9E8FC8D1] (AR v2)
Трек 4 : извлечено точно (доверие 134) [7D665FBE] (AR v2)
Трек 5 : извлечено точно (доверие 134) [8896F38F] (AR v2)
Трек 6 : извлечено точно (доверие 134) [2EE85A70] (AR v2)
Трек 7 : извлечено точно (доверие 134) [B2C7F8D1] (AR v2)
Трек 8 : извлечено точно (доверие 134) [BD77C400] (AR v2)
Трек 9 : извлечено точно (доверие 134) [29E78284] (AR v2)
Трек 10 : извлечено точно (доверие 134) [B4C2DA40] (AR v2)
Трек 11 : извлечено точно (доверие 133) [4C060120] (AR v2)
Трек 12 : извлечено точно (доверие 133) [875C20ED] (AR v2)
Трек 13 : извлечено точно (доверие 134) [B4FF422F] (AR v2)

Все треки извлечены точно

Конец отчёта

—- CUETools DB Plugin V2.1.6

[CTDB TOCID: r7CdVqFZ3mrCtCqbd3gSjjODwfA-] found
Submit result: r7CdVqFZ3mrCtCqbd3gSjjODwfA- has been confirmed
Track | CTDB Status
1 | (271/271) Accurately ripped
2 | (270/271) Accurately ripped
3 | (271/271) Accurately ripped
4 | (271/271) Accurately ripped
5 | (271/271) Accurately ripped
6 | (271/271) Accurately ripped
7 | (271/271) Accurately ripped
8 | (270/271) Accurately ripped
9 | (271/271) Accurately ripped
10 | (271/271) Accurately ripped
11 | (271/271) Accurately ripped
12 | (271/271) Accurately ripped
13 | (268/271) Accurately ripped

==== Контрольная сумма отчёта 70E25714E45F39905C0B69EEAE8256C8E806DFDFF5623F106B063C6D7D7D0789 ====

REM GENRE “Alternative Rock”
REM DATE 2013
REM DISCID A10F240D
REM COMMENT “ExactAudioCopy v1.1”
CATALOG 4943674161195
PERFORMER “Muse”
TITLE “Live At Rome Olympic Stadium”
FILE “Muse – 2013 – Live At Rome Olympic Stadium.flac” WAVE
TRACK 01 AUDIO
TITLE “Supremacy”
PERFORMER “Muse”
ISRC GBAHT1326108
INDEX 01 00:00:00
TRACK 02 AUDIO
TITLE “Panic Station”
PERFORMER “Muse”
ISRC GBAHT1326109
INDEX 01 05:14:31
TRACK 03 AUDIO
TITLE “Resistance”
PERFORMER “Muse”
ISRC GBAHT1326110
INDEX 01 08:26:59
TRACK 04 AUDIO
TITLE “Hysteria”
PERFORMER “Muse”
ISRC GBAHT1326111
INDEX 01 13:59:01
TRACK 05 AUDIO
TITLE “Animals”
PERFORMER “Muse”
ISRC GBAHT1326112
INDEX 01 19:05:12
TRACK 06 AUDIO
TITLE “Knights Of Cydonia”
PERFORMER “Muse”
ISRC GBAHT1326113
INDEX 01 23:26:24
TRACK 07 AUDIO
TITLE “Explorers”
PERFORMER “Muse”
ISRC GBAHT1326114
INDEX 01 31:45:52
TRACK 08 AUDIO
TITLE “Follow Me”
PERFORMER “Muse”
ISRC GBAHT1326115
INDEX 01 37:39:72
TRACK 09 AUDIO
TITLE “Madness”
PERFORMER “Muse”
ISRC GBAHT1326116
INDEX 01 41:32:08
TRACK 10 AUDIO
TITLE “Guiding Light”
PERFORMER “Muse”
ISRC GBAHT1326117
INDEX 01 46:09:70
TRACK 11 AUDIO
TITLE “Supermassive Black Hole”
PERFORMER “Muse”
ISRC GBAHT1326118
INDEX 01 50:28:28
TRACK 12 AUDIO
TITLE “Uprising”
PERFORMER “Muse”
ISRC GBAHT1326119
INDEX 01 54:33:44
TRACK 13 AUDIO
TITLE “Starlight”
PERFORMER “Muse”
ISRC GBAHT1326120
INDEX 01 60:08:44


Leave a Reply

Your email address will not be published. Required fields are marked *

This site uses Akismet to reduce spam. Learn how your comment data is processed.