Muse – HAARP




Artist: Muse
Year: 2008
Genre: Rock
Notes: Discogs
Add. Notes:
Encoder: FLAC
Bitrate: ~1000 kBit/s (VBR)
Size: 500,35 MB
Password: “slam” (without ” “)


Tracklist:

1. Intro	1:45
2. Knights Of Cydonia	6:14
3. Hysteria	4:19
4. Supermassive Black Hole	4:01
5. Map Of The Problematique	5:23
6. Butterflies & Hurricanes	5:57
7. Invincible	6:16
8. Starlight	4:14
9. Time Is Running Out	4:24
10. New Born	6:33
11. Unintended	4:36
12. Micro Cuts	3:47
13. Stockholm Syndrome	7:38
14. Take A Bow	4:42

EAC-Log, CUE-Sheed & NFO:

Click to open spoiler

Имя файла G:\MUSE_HAARP_TOUR\CD\Muse – H.A.A.R.P..wav

Пиковый уровень 100.0 %
Качество диапазона 100.0 %
CRC 16689215
Копирование… OK

Ошибок не произошло

Конец отчёта

REM GENRE “Rock”
REM DATE 2008
REM DISCID BD10E10E
REM COMMENT “ExactAudioCopy v0.95b3”
REM ACCURATERIPID 00232103-017ebc99-bd10e10e
PERFORMER “Muse”
TITLE “H.A.A.R.P”
FILE “Muse – H.A.A.R.P [WPZR-30267] [2008].flac” WAVE
TRACK 01 AUDIO
TITLE “Intro”
PERFORMER “Muse”
INDEX 01 00:00:00
TRACK 02 AUDIO
TITLE “Knights Of Cydonia”
PERFORMER “Muse”
INDEX 01 01:46:21
TRACK 03 AUDIO
TITLE “Hysteria”
PERFORMER “Muse”
INDEX 01 08:24:04
TRACK 04 AUDIO
TITLE “Supermassive Black Hole”
PERFORMER “Muse”
INDEX 01 12:43:17
TRACK 05 AUDIO
TITLE “Map Of The Problematique”
PERFORMER “Muse”
INDEX 01 16:44:12
TRACK 06 AUDIO
TITLE “Butterflies & Hurricanes”
PERFORMER “Muse”
INDEX 01 22:06:65
TRACK 07 AUDIO
TITLE “Invincible”
PERFORMER “Muse”
INDEX 01 28:03:64
TRACK 08 AUDIO
TITLE “Starlight”
PERFORMER “Muse”
INDEX 01 34:19:52
TRACK 09 AUDIO
TITLE “Time Is Running Out”
PERFORMER “Muse”
INDEX 01 38:33:62
TRACK 10 AUDIO
TITLE “New Born”
PERFORMER “Muse”
INDEX 01 42:57:13
TRACK 11 AUDIO
TITLE “Unintended”
PERFORMER “Muse”
INDEX 01 51:14:09
TRACK 12 AUDIO
TITLE “Micro Cuts”
PERFORMER “Muse”
INDEX 01 55:49:58
TRACK 13 AUDIO
TITLE “Stockholm Syndrome”
PERFORMER “Muse”
INDEX 01 59:37:16
TRACK 14 AUDIO
TITLE “Take A Bow”
PERFORMER “Muse”
INDEX 01 67:14:65

Leave a Reply

Your email address will not be published. Required fields are marked *

Enter the text from the image below
 

This site uses Akismet to reduce spam. Learn how your comment data is processed.