Muse – Drones




Artist: Muse
Year: 2015
Genre: Rock
Notes: Discogs
Add. Notes:
Encoder: FLAC
Bitrate: ~900 kBit/s (VBR)
Size: 579 MB
Password: “slam” (without ” “)


Tracklist:

01. Dead Inside
02. [Drill Sergeant]
03. Psycho
04. Mercy
05. Reapers
06. The Handler
07. [JFK]
08. Defector
09. Revolt
10. Aftermath
11. The Globalist
12. Drones

Click to open spoiler
Exact Audio Copy V1.1 from 23. June 2015

Отчёт EAC об извлечении, выполненном 21. сентября 2015, 0:23

Muse / Drones

Дисковод: ASUS BW-12B1ST Adapter: 1 ID: 0

Режим чтения : Достоверность
Использование точного потока : Да
Отключение кэша аудио : Да
Использование указателей C2 : Нет

Коррекция смещения при чтении : 6
Способность читать области Lead-in и Lead-out : Нет
Заполнение пропущенных сэмплов тишиной : Да
Удаление блоков с тишиной в начале и конце : Нет
При вычислениях CRC использовались нулевые сэмплы : Да
Интерфейс : Встроенный Win32-интерфейс для Win NT/2000

Выходной формат : Внутренние WAV-операции
Формат сэмплов : 44.100 Гц; 16 бит; стерео

TOC извлечённого CD

Трек | Старт | Длительность | Начальный сектор | Конечный сектор
———————————————————————
1 | 0:00.00 | 4:23.71 | 0 | 19795
2 | 4:23.71 | 0:21.10 | 19796 | 21380
3 | 4:45.06 | 5:16.55 | 21381 | 45135
4 | 10:01.61 | 3:51.73 | 45136 | 62533
5 | 13:53.59 | 5:59.39 | 62534 | 89497
6 | 19:53.23 | 4:33.57 | 89498 | 110029
7 | 24:27.05 | 0:54.47 | 110030 | 114126
8 | 25:21.52 | 4:32.74 | 114127 | 134600
9 | 29:54.51 | 4:05.54 | 134601 | 153029
10 | 34:00.30 | 5:48.00 | 153030 | 179129
11 | 39:48.30 | 10:07.21 | 179130 | 224675
12 | 49:55.51 | 2:51.69 | 224676 | 237569

Характеристики диапазона извлечения и сообщения об ошибках

Выбранный диапазон

Имя файла D:\EAC\Muse – 2015 – Drones (Warner Bros. Records – WPZR-30647-8)\Muse – 2015 – Drones.wav

Пиковый уровень 100.0 %
Скорость извлечения 3.1 X
Качество диапазона 99.9 %
CRC теста 54163AEF
CRC копии 54163AEF
Копирование… OK

Ошибок не произошло

AccurateRip: сводка

Трек 1 : извлечено точно (доверие 133) [26777687] (AR v2)
Трек 2 : извлечено точно (доверие 133) [3ED7AB66] (AR v2)
Трек 3 : извлечено точно (доверие 131) [D57762BD] (AR v2)
Трек 4 : извлечено точно (доверие 133) [2953814F] (AR v2)
Трек 5 : извлечено точно (доверие 133) [F982C992] (AR v2)
Трек 6 : извлечено точно (доверие 133) [5D6C1DD6] (AR v2)
Трек 7 : извлечено точно (доверие 133) [38880F0C] (AR v2)
Трек 8 : извлечено точно (доверие 132) [0981B9FE] (AR v2)
Трек 9 : извлечено точно (доверие 133) [67E5CF74] (AR v2)
Трек 10 : извлечено точно (доверие 134) [EC70FF48] (AR v2)
Трек 11 : извлечено точно (доверие 133) [5D8856BB] (AR v2)
Трек 12 : извлечено точно (доверие 133) [63488DDE] (AR v2)

Все треки извлечены точно

Конец отчёта

—- CUETools DB Plugin V2.1.6

[CTDB TOCID: CQsgzpy8rOPjORnS4hiFAynjyJ8-] found
Submit result: CQsgzpy8rOPjORnS4hiFAynjyJ8- has been confirmed
Track | CTDB Status
1 | (916/920) Accurately ripped
2 | (915/920) Accurately ripped
3 | (909/920) Accurately ripped
4 | (914/920) Accurately ripped
5 | (914/920) Accurately ripped
6 | (914/920) Accurately ripped
7 | (915/920) Accurately ripped
8 | (913/920) Accurately ripped
9 | (913/920) Accurately ripped
10 | (913/920) Accurately ripped
11 | (911/920) Accurately ripped
12 | (917/920) Accurately ripped

==== Контрольная сумма отчёта 4305E66F896BCF6845FDF74650D6FF7F87F813649E30C71FBF923B219FC6CFD6 ====

REM GENRE Alternative
REM DATE 2015
REM DISCID B00C5F0C
REM COMMENT “ExactAudioCopy v1.1”
CATALOG 4943674213368
PERFORMER “Muse”
TITLE “Drones”
FILE “Muse – 2015 – Drones.flac” WAVE
TRACK 01 AUDIO
TITLE “Dead Inside”
PERFORMER “Muse”
ISRC GBAHT1500066
INDEX 01 00:00:00
TRACK 02 AUDIO
TITLE “[Drill Sergeant]”
PERFORMER “Muse”
ISRC GBAHT1500067
INDEX 01 04:23:71
TRACK 03 AUDIO
TITLE “Psycho”
PERFORMER “Muse”
ISRC GBAHT1500068
INDEX 01 04:45:06
TRACK 04 AUDIO
TITLE “Mercy”
PERFORMER “Muse”
ISRC GBAHT1500069
INDEX 01 10:01:61
TRACK 05 AUDIO
TITLE “Reapers”
PERFORMER “Muse”
ISRC GBAHT1500070
INDEX 01 13:53:59
TRACK 06 AUDIO
TITLE “The Handler”
PERFORMER “Muse”
ISRC GBAHT1500071
INDEX 01 19:53:23
TRACK 07 AUDIO
TITLE “[JFK]”
PERFORMER “Muse”
ISRC GBAHT1500072
INDEX 01 24:27:05
TRACK 08 AUDIO
TITLE “Defector”
PERFORMER “Muse”
ISRC GBAHT1500073
INDEX 01 25:21:52
TRACK 09 AUDIO
TITLE “Revolt”
PERFORMER “Muse”
ISRC GBAHT1500074
INDEX 01 29:54:51
TRACK 10 AUDIO
TITLE “Aftermath”
PERFORMER “Muse”
ISRC GBAHT1500075
INDEX 01 34:00:30
TRACK 11 AUDIO
TITLE “The Globalist”
PERFORMER “Muse”
ISRC GBAHT1500076
INDEX 01 39:48:30
TRACK 12 AUDIO
TITLE “Drones”
PERFORMER “Muse”
ISRC GBAHT1500077
INDEX 01 49:55:51

Leave a Reply

Your email address will not be published. Required fields are marked *

This site uses Akismet to reduce spam. Learn how your comment data is processed.