Muse – Black Holes And Revelations




Artist: Muse
Year: 2006
Genre: Rock
Notes: Discogs
Add. Notes:
Encoder: FLAC
Bitrate: ~900 kBit/s (VBR)
Size: 358,88 MB
Password: “slam” (without ” “)


Tracklist:

1 - Take A Bow - 4:35
2 - Starlight - 3:59
3 - Supermassive Black Hole - 3:30
4 - Map Of The Problematique - 4:18
5 - Soldiers Poem - 2:04
6 - Invincible - 5:00
7 - Assassin - 3:31
8 - Exo-Politics - 3:53
9 - City Of Delusion - 4:48
10 - Hoodoo - 3:43
11 - Knights Of Cydonia - 6:07

EAC-Log, CUE-Sheed & NFO:

Click to open spoiler
Отчёт EAC об извлечении, выполненном 7. февраля 2009, 13:24 для диска:
Muse / Black Holes And Revelations [WPZR-30194]

Дисковод: PLEXTOR CD-R PREMIUM2 Adapter: 1 ID: 0
Режим чтения: Достоверный (C2: нет, Точный поток: да, Отключение кэша: да)
Коррекция смещения при чтении: 30
Способность читать области Lead-in и Lead-out : Да

Выходной формат: Внутренние WAV-операции
44.100 Гц; 16 бит; стерео

Другие параметры:
Заполнение пропущенных сэмплов тишиной : Да
Удаление блоков с тишиной в начале и конце : Нет
Встроенный Win32-интерфейс для Win NT/2000

Характеристики диапазона извлечения и сообщения об ошибках
Выбранный диапазон
Имя файла F:\audiophile music\other audiophile CDs\MUSE – Black Holes And Revelations [WPZR-30194-5]\Muse – Black Holes And Revelations [WPZR-30194].wav

Пиковый уровень 100.0 %
Качество диапазона 100.0 %
CRC 65F1C3A2
Копирование… OK

Ошибок не произошло

Конец отчёта

REM GENRE “Alternative”
REM DATE 2006
REM DISCID A00BC40C
REM COMMENT “ExactAudioCopy v0.95b3”
REM ACCURATERIPID 0015700c-00c8b202-a00bc40c
PERFORMER “Muse”
TITLE “Black Holes And Revelations”
FILE “Muse – Black Holes And Revelations [WPZR-30194] (2006).flac” WAVE
TRACK 01 AUDIO
TITLE “Take A Bow”
PERFORMER “Muse”
INDEX 01 00:00:00
TRACK 02 AUDIO
TITLE “Starlight”
PERFORMER “Muse”
INDEX 01 04:35:35
TRACK 03 AUDIO
TITLE “Supermassive Black Hole”
PERFORMER “Muse”
INDEX 01 08:35:20
TRACK 04 AUDIO
TITLE “Map Of The Problematique”
PERFORMER “Muse”
INDEX 01 12:04:47
TRACK 05 AUDIO
TITLE “Soldier’s Poem”
PERFORMER “Muse”
INDEX 00 16:22:50
INDEX 01 16:23:35
TRACK 06 AUDIO
TITLE “Invincible”
PERFORMER “Muse”
INDEX 01 18:27:27
TRACK 07 AUDIO
TITLE “Assassin”
PERFORMER “Muse”
INDEX 01 23:27:45
TRACK 08 AUDIO
TITLE “Exo-Politics”
PERFORMER “Muse”
INDEX 01 26:58:55
TRACK 09 AUDIO
TITLE “City Of Delusion”
PERFORMER “Muse”
INDEX 01 30:51:72
TRACK 10 AUDIO
TITLE “Hoodoo”
PERFORMER “Muse”
INDEX 00 35:40:20
INDEX 01 35:40:62
TRACK 11 AUDIO
TITLE “Knights Of Cydonia”
PERFORMER “Muse”
INDEX 00 39:23:50
INDEX 01 39:24:15
TRACK 12 AUDIO
TITLE “Glorious”
PERFORMER “Muse”
INDEX 01 45:31:00

Leave a Reply

Your email address will not be published. Required fields are marked *

Enter the text from the image below
 

This site uses Akismet to reduce spam. Learn how your comment data is processed.