Muse – Absolution




Artist: Muse
Year: 2003
Genre: Rock
Notes: Discogs
Add. Notes:
Encoder: FLAC
Bitrate: ~900 kBit/s (VBR)
Size: 407,44 MB
Password: “slam” (without ” “)


Tracklist:

Intro	0:22
Apocalypse Please	4:12
Time Is Running Out	3:56
Sing For Absolution	4:54
Stockholm Syndrome	4:58
Falling Away With You	4:40
Interlude	0:37
Hysteria	3:47
Blackout	4:22
Butterflies & Hurricanes	5:01
The Small Print	3:28
Endlessly	3:49
Thoughts Of A Dying Atheist	3:11
Ruled By Secrecy	4:54

EAC-Log, CUE-Sheed & NFO:

Click to open spoiler
Отчёт EAC об извлечении, выполненном 31. августа 2008, 15:37 для диска:
MUSE / ABSOLUTION [CTCM-65049]

Дисковод: PLEXTOR CD-R PREMIUM2 Adapter: 1 ID: 0
Режим чтения: Достоверный (C2: нет, Точный поток: да, Отключение кэша: да)
Коррекция смещения при чтении: 30
Способность читать области Lead-in и Lead-out : Да

Выходной формат: Внутренние WAV-операции
44.100 Гц; 16 бит; стерео

Другие параметры:
Заполнение пропущенных сэмплов тишиной : Да
Удаление блоков с тишиной в начале и конце : Нет
Встроенный Win32-интерфейс для Win NT/2000

Характеристики диапазона извлечения и сообщения об ошибках
Выбранный диапазон
Имя файла G:\audiophile music\other cool HQ music\MUSE – ABSOLUTION [CTCM-65049]\MUSE – ABSOLUTION [CTCM-65049].wav

Пиковый уровень 100.0 %
Качество диапазона 100.0 %
CRC F71EB7D0
Копирование… OK

Ошибок не произошло

Конец отчёта

REM GENRE “Alternative”
REM DATE 2003
REM DISCID D5115610
REM COMMENT “ExactAudioCopy v0.95b3”
REM ACCURATERIPID 001dbe38-01588176-c30d6d0f
PERFORMER “Muse”
TITLE “Absolution”
FILE “Muse – Absolution [CTCM-65049] (2003).flac” WAVE
TRACK 01 AUDIO
TITLE “Intro”
PERFORMER “Muse”
INDEX 01 00:00:00
TRACK 02 AUDIO
TITLE “Apocalypse Please”
PERFORMER “Muse”
INDEX 01 00:22:10
TRACK 03 AUDIO
TITLE “Time Is Running Out”
PERFORMER “Muse”
INDEX 01 04:35:00
TRACK 04 AUDIO
TITLE “Sing For Absolution”
PERFORMER “Muse”
INDEX 01 08:31:17
TRACK 05 AUDIO
TITLE “Stockholm Syndrome”
PERFORMER “Muse”
INDEX 01 13:26:07
TRACK 06 AUDIO
TITLE “Falling Away With You”
PERFORMER “Muse”
INDEX 00 18:23:07
INDEX 01 18:24:45
TRACK 07 AUDIO
TITLE “Interlude”
PERFORMER “Muse”
INDEX 01 23:05:17
TRACK 08 AUDIO
TITLE “Hysteria”
PERFORMER “Muse”
INDEX 01 23:42:67
TRACK 09 AUDIO
TITLE “Blackout”
PERFORMER “Muse”
INDEX 01 27:30:25
TRACK 10 AUDIO
TITLE “Butterflies & Hurricanes”
PERFORMER “Muse”
INDEX 01 31:52:40
TRACK 11 AUDIO
TITLE “The Small Print”
PERFORMER “Muse”
INDEX 01 36:54:20
TRACK 12 AUDIO
TITLE “Fury”
PERFORMER “Muse”
INDEX 01 40:23:20
TRACK 13 AUDIO
TITLE “Endlessly”
PERFORMER “Muse”
INDEX 01 45:25:20
TRACK 14 AUDIO
TITLE “Thoughts Of A Dying Atheist”
PERFORMER “Muse”
INDEX 01 49:14:15
TRACK 15 AUDIO
TITLE “Ruled By Secrecy”
PERFORMER “Muse”
INDEX 00 52:21:37
INDEX 01 52:25:20

Leave a Reply

Your email address will not be published. Required fields are marked *

Enter the text from the image below
 

This site uses Akismet to reduce spam. Learn how your comment data is processed.