Motörhead – What’s Wordsworth? – Recorded Live 1978 (Remastered)




No Cover available

Artist: Motörhead
Year: 1983/2002
Genre: Metal
Notes: Discogs
Add. Notes: Remastered
Watch Songs on: YouTube
Cover incl.: Yes
Encoder: FLAC
Bitrate: ~1000 kBit/s (44.1 kHz/16 Bit/s)
Log & Cue incl.: Yes/Yes
Size: 253,5 MB
Password: “slam” (without ” “)


All Downloads/Hosters are compatible

Download 1
KatFile.com
Turbobit.net
Rapidgator.net
FileFactory.com
Download 2
KatFile.com
Turbobit.net
Rapidgator.net
FileFactory.com

Tracklist:

1 The Watcher 4:06
2 Iron Horse / Born To Lose 5:05
3 On Parole 5:26
4 White Line Fever 2:34
5 Keep Us On The Road 5:25
6 Leaving Here 3:12
7 I'm Your Witch Doctor 3:08
8 The Train Kept A Rollin' 2:47
9 City Kids 3:38

EAC-Log, CUE-Sheed & NFO:

Click to open spoiler
Exact Audio Copy V0.99 prebeta 1 from 25. May 2007

EAC extraction logfile from 5. November 2009, 9:59

Motorhead / What’s Wordsworth – Recorded Live 1978

Used drive : _NEC DVD_RW ND-4550A Adapter: 0 ID: 1

Read mode : Secure
Utilize accurate stream : Yes
Defeat audio cache : Yes
Make use of C2 pointers : No

Read offset correction : 48
Overread into Lead-In and Lead-Out : No
Fill up missing offset samples with silence : Yes
Delete leading and trailing silent blocks : No
Used interface : Native Win32 interface for Win NT & 2000
Gap handling : Appended to previous track

Used output format : User Defined Encoder
Selected bitrate : 128 kBit/s
Quality : High
Add ID3 tag : No
Command line compressor : C:\Program Files\Exact Audio Copy\Flac\flac.exe
Additional command line options : -8 -V -T “ARTIST=%a” -T “TITLE=%t” -T “ALBUM=%g” -T “DATE=%y” -T “TRACKNUMBER=%n” -T “GENRE=%m” -T “COMMENT=EAC FLAC -8” %s

TOC of the extracted CD

Track | Start | Length | Start sector | End sector
———————————————————
1 | 0:00.00 | 4:06.42 | 0 | 18491
2 | 4:06.42 | 5:05.39 | 18492 | 41405
3 | 9:12.06 | 5:26.72 | 41406 | 65927
4 | 14:39.03 | 2:34.30 | 65928 | 77507
5 | 17:13.33 | 5:25.03 | 77508 | 101885
6 | 22:38.36 | 3:12.18 | 101886 | 116303
7 | 25:50.54 | 3:08.00 | 116304 | 130403
8 | 28:58.54 | 2:47.09 | 130404 | 142937
9 | 31:45.63 | 3:38.47 | 142938 | 159334

Track 1

Filename D:\Music\lossless\Motorhead\1983 What’s Wordsworth\01. Motorhead – The Watcher.wav

Pre-gap length 0:00:02.00

Peak level 97.1 %
Track quality 100.0 %
Test CRC 9EC84904
Copy CRC 9EC84904
Track not present in AccurateRip database
Copy OK

Track 2

Filename D:\Music\lossless\Motorhead\1983 What’s Wordsworth\02. Motorhead – Iron Horse – Born To Lose.wav

Peak level 97.1 %
Track quality 99.9 %
Test CRC 78A3F67B
Copy CRC 78A3F67B
Track not present in AccurateRip database
Copy OK

Track 3

Filename D:\Music\lossless\Motorhead\1983 What’s Wordsworth\03. Motorhead – On Parole.wav

Peak level 89.1 %
Track quality 100.0 %
Test CRC 8E160D6E
Copy CRC 8E160D6E
Track not present in AccurateRip database
Copy OK

Track 4

Filename D:\Music\lossless\Motorhead\1983 What’s Wordsworth\04. Motorhead – White Line Fever.wav

Peak level 97.1 %
Track quality 99.9 %
Test CRC 1C09F1ED
Copy CRC 1C09F1ED
Track not present in AccurateRip database
Copy OK

Track 5

Filename D:\Music\lossless\Motorhead\1983 What’s Wordsworth\05. Motorhead – Keep Us On The Road.wav

Peak level 97.1 %
Track quality 100.0 %
Test CRC DF5B9D5D
Copy CRC DF5B9D5D
Track not present in AccurateRip database
Copy OK

Track 6

Filename D:\Music\lossless\Motorhead\1983 What’s Wordsworth\06. Motorhead – Leaving Here.wav

Peak level 97.1 %
Track quality 99.9 %
Test CRC 2ED29839
Copy CRC 2ED29839
Track not present in AccurateRip database
Copy OK

Track 7

Filename D:\Music\lossless\Motorhead\1983 What’s Wordsworth\07. Motorhead – I’m Your Witch Doctor.wav

Peak level 97.1 %
Track quality 100.0 %
Test CRC 802807B2
Copy CRC 802807B2
Track not present in AccurateRip database
Copy OK

Track 8

Filename D:\Music\lossless\Motorhead\1983 What’s Wordsworth\08. Motorhead – The Train Kept A Rollin’.wav

Peak level 97.1 %
Track quality 100.0 %
Test CRC 61DF1108
Copy CRC 61DF1108
Track not present in AccurateRip database
Copy OK

Track 9

Filename D:\Music\lossless\Motorhead\1983 What’s Wordsworth\09. Motorhead – City Kids.wav

Peak level 97.1 %
Track quality 100.0 %
Test CRC B5947B86
Copy CRC B5947B86
Track not present in AccurateRip database
Copy OK

No errors occurred

End of status report

REM GENRE Metal
REM DATE 1983
REM DISCID 6C084C09
REM COMMENT “ExactAudioCopy v0.99pb1”
PERFORMER “Motorhead”
TITLE “What’s Wordsworth – Recorded Live 1978”
FILE “01. Motorhead – The Watcher.wav” WAVE
TRACK 01 AUDIO
TITLE “The Watcher”
PERFORMER “Motorhead”
INDEX 01 00:00:00
FILE “02. Motorhead – Iron Horse – Born To Lose.wav” WAVE
TRACK 02 AUDIO
TITLE “Iron Horse – Born To Lose”
PERFORMER “Motorhead”
INDEX 01 00:00:00
FILE “03. Motorhead – On Parole.wav” WAVE
TRACK 03 AUDIO
TITLE “On Parole”
PERFORMER “Motorhead”
INDEX 01 00:00:00
FILE “04. Motorhead – White Line Fever.wav” WAVE
TRACK 04 AUDIO
TITLE “White Line Fever”
PERFORMER “Motorhead”
INDEX 01 00:00:00
FILE “05. Motorhead – Keep Us On The Road.wav” WAVE
TRACK 05 AUDIO
TITLE “Keep Us On The Road”
PERFORMER “Motorhead”
INDEX 01 00:00:00
FILE “06. Motorhead – Leaving Here.wav” WAVE
TRACK 06 AUDIO
TITLE “Leaving Here”
PERFORMER “Motorhead”
INDEX 01 00:00:00
FILE “07. Motorhead – I’m Your Witch Doctor.wav” WAVE
TRACK 07 AUDIO
TITLE “I’m Your Witch Doctor”
PERFORMER “Motorhead”
INDEX 01 00:00:00
FILE “08. Motorhead – The Train Kept A Rollin’.wav” WAVE
TRACK 08 AUDIO
TITLE “The Train Kept A Rollin'”
PERFORMER “Motorhead”
INDEX 01 00:00:00
FILE “09. Motorhead – City Kids.wav” WAVE
TRACK 09 AUDIO
TITLE “City Kids”
PERFORMER “Motorhead”
INDEX 01 00:00:00


Leave a Reply

Your email address will not be published. Required fields are marked *

Enter the text from the image below
 

This site uses Akismet to reduce spam. Learn how your comment data is processed.