Motörhead – Motörizer (Japanese Edition)




No Cover available

Artist: Motörhead
Year: 2008
Genre: Rock
Notes: Discogs
Add. Notes: Japanese Edition
Watch Songs on: YouTube
Cover incl.: Yes
Encoder: FLAC
Bitrate: ~1000 kBit/s (44.1 kHz/16 Bit/s)
Log & Cue incl.: Yes/Yes
Size: 311,6 MB
Password: “slam” (without ” “)


All Downloads/Hosters are compatible

Download 1
KatFile.com
Turbobit.net
Rapidgator.net
FileFactory.com
Download 2
KatFile.com
Turbobit.net
Rapidgator.net
FileFactory.com

Tracklist:

1 - Runaround Man - 3:02
2 - Teach You How To Sing The Blues - 3:05
3 - When The Eagle Screams - 3:45
4 - Rock Out - 2:10
5 - One Short Life - 4:10
6 - Buried Alive - 3:14
7 - English Rose - 3:42
8 - Back On The Chain - 3:27
9 - Heroes - 5:01
10 - Time Is Right - 3:16
11 - The Thousand Names Of God - 4:38

EAC-Log, CUE-Sheed & NFO:

Click to open spoiler
Exact Audio Copy V0.99 prebeta 4 from 23. January 2008

Отчёт EAC об извлечении, выполненном 2. октября 2008, 13:01

Motorhead / Motorizer (Japanese VICP-64385)

Дисковод: PLEXTOR DVDR PX-716A Adapter: 3 ID: 0

Режим чтения : Достоверность
Использование точного потока : Да
Отключение кэша аудио : Да
Использование указателей C2 : Нет

Коррекция смещения при чтении : 30
Способность читать области Lead-in и Lead-out : Да
Заполнение пропущенных сэмплов тишиной : Да
Удаление блоков с тишиной в начале и конце : Нет
При вычислениях CRC использовались нулевые сэмплы : Нет
Интерфейс : Установленный внешний ASPI-интерфейс

Выходной формат : Пользовательский кодировщик
Выбранный битрейт : 32 kBit/s
Качество : Высокий
Добавление ID3-тэга : Да
Утилита сжатия : C:\Program Files\AUDIO\Exact Audio Copy 099pb4\Flac\flac.exe
Дополнительные параметры : -6 -V -T “artist=%a” -T “title=%t” -T “album=%g” -T “date=%y” -T “tracknumber=%n” -T “genre=%m” -T “comment=EAC 0.99prebeta4 / FLAC 1.2.1 q6” %s

TOC извлечённого CD

Трек | Старт | Длительность | Начальный сектор | Конечный сектор
———————————————————————
1 | 0:00.00 | 2:57.53 | 0 | 13327
2 | 2:57.53 | 3:03.68 | 13328 | 27120
3 | 6:01.46 | 3:44.34 | 27121 | 43954
4 | 9:46.05 | 2:07.72 | 43955 | 53551
5 | 11:54.02 | 4:05.41 | 53552 | 71967
6 | 15:59.43 | 3:12.56 | 71968 | 86423
7 | 19:12.24 | 3:37.60 | 86424 | 102758
8 | 22:50.09 | 3:24.58 | 102759 | 118116
9 | 26:14.67 | 4:59.50 | 118117 | 140591
10 | 31:14.42 | 3:14.19 | 140592 | 155160
11 | 34:28.61 | 4:34.59 | 155161 | 175769

Характеристики диапазона извлечения и сообщения об ошибках

Выбранный диапазон

Имя файла D:\MY_Create\Motorhead_2008\Motorhead – Motorizer (Japanese VICP-64385).wav

Пиковый уровень 100.0 %
Качество диапазона 100.0 %
CRC копии 0253170B
Копирование… OK

Ошибок не произошло

Конец отчёта

—————-

REM GENRE “Heavy Metal”
REM DATE 2008
REM DISCID 9C09270B
REM COMMENT “ExactAudioCopy v0.99pb4”
CATALOG 4988002553518
PERFORMER “Motorhead”
TITLE “Motorizer (Japanese VICP-64385)”
FILE “Motorhead – Motorizer (Japanese VICP-64385).flac” WAVE
TRACK 01 AUDIO
TITLE “Runaround Man”
PERFORMER “Motorhead”
ISRC DEA450812840
INDEX 01 00:00:00
TRACK 02 AUDIO
TITLE “Teach You How To Sing The Blues”
PERFORMER “Motorhead”
ISRC DEA450812810
INDEX 01 02:57:53
TRACK 03 AUDIO
TITLE “When The Eagle Screams”
PERFORMER “Motorhead”
ISRC DEA450812880
INDEX 01 06:01:46
TRACK 04 AUDIO
TITLE “Rock Out”
PERFORMER “Motorhead”
ISRC DEA450812860
INDEX 01 09:46:05
TRACK 05 AUDIO
TITLE “One Short Life”
PERFORMER “Motorhead”
ISRC DEA450812830
INDEX 01 11:54:02
TRACK 06 AUDIO
TITLE “Buried Alive”
PERFORMER “Motorhead”
ISRC DEA450812910
INDEX 01 15:59:43
TRACK 07 AUDIO
TITLE “English Rose”
PERFORMER “Motorhead”
ISRC DEA450812850
INDEX 01 19:12:24
TRACK 08 AUDIO
TITLE “Back On The Chain”
PERFORMER “Motorhead”
ISRC DEA450812900
INDEX 01 22:50:09
TRACK 09 AUDIO
TITLE “Heroes”
PERFORMER “Motorhead”
ISRC DEA450812890
INDEX 01 26:14:67
TRACK 10 AUDIO
TITLE “Time Is Right”
PERFORMER “Motorhead”
ISRC DEA450812820
INDEX 01 31:14:42
TRACK 11 AUDIO
TITLE “The Thousand Names Of God”
PERFORMER “Motorhead”
ISRC DEA450812870
INDEX 01 34:28:61


Leave a Reply

Your email address will not be published. Required fields are marked *

This site uses Akismet to reduce spam. Learn how your comment data is processed.