Motörhead – Bastards (Japanese Edition)




No Cover available


Artist: Motörhead
Year: 1993
Genre: Metal
Notes: Discogs
Add. Notes: Japanese Edition
Watch Songs on: YouTube
Cover incl.: Yes
Encoder: FLAC
Bitrate: ~1000 kBit/s (44.1 kHz/16 Bit/s)
Log & Cue incl.: Yes/Yes
Size: 396,4 MB
Password: “slam” (without ” “)


All Downloads/Hosters are compatible

Download 1
KatFile.com
Turbobit.net
Rapidgator.net
FileFactory.com
Download 2
KatFile.com
Turbobit.net
Rapidgator.net
FileFactory.com

Tracklist:

1 On Your Feet Or On Your Knees 2:33
2 Burner 2:52
3 Death Or Glory 4:50
4 I Am The Sword 4:28
5 Born To Raise Hell 4:57
6 Don't Let Daddy Kiss Me 4:05
7 Bad Woman 3:16
8 Liar 4:10
9 Lost In The Ozone 3:26
10 I'm Your Man 3:28
11 We Bring The Shake 3:46
12 Devils 5:59

EAC-Log, CUE-Sheed & NFO:

Click to open spoiler
Exact Audio Copy V1.0 beta 3 from 29. August 2011

EAC extraction logfile from 4. October 2013, 19:24

Motorhead / Bastards

Used drive : PIONEER DVD-RW DVR-111D Adapter: 4 ID: 1

Read mode : Secure
Utilize accurate stream : Yes
Defeat audio cache : Yes
Make use of C2 pointers : No

Read offset correction : 48
Overread into Lead-In and Lead-Out : No
Fill up missing offset samples with silence : Yes
Delete leading and trailing silent blocks : No
Null samples used in CRC calculations : Yes
Used interface : Native Win32 interface for Win NT & 2000

Used output format : User Defined Encoder
Selected bitrate : 128 kBit/s
Quality : High
Add ID3 tag : No
Command line compressor : F:\Program Files\FLAC\flac.exe
Additional command line options : -V -8 -T “Date=%year%” -T “Genre=%genre%” %source%

TOC of the extracted CD

Track | Start | Length | Start sector | End sector
———————————————————
1 | 0:00.00 | 2:34.10 | 0 | 11559
2 | 2:34.10 | 2:52.68 | 11560 | 24527
3 | 5:27.03 | 4:50.37 | 24528 | 46314
4 | 10:17.40 | 4:27.70 | 46315 | 66409
5 | 14:45.35 | 4:58.58 | 66410 | 88817
6 | 19:44.18 | 4:04.00 | 88818 | 107117
7 | 23:48.18 | 3:18.20 | 107118 | 121987
8 | 27:06.38 | 4:12.20 | 121988 | 140907
9 | 31:18.58 | 3:27.55 | 140908 | 156487
10 | 34:46.38 | 3:28.30 | 156488 | 172117
11 | 38:14.68 | 3:48.07 | 172118 | 189224
12 | 42:03.00 | 5:59.30 | 189225 | 216179

Range status and errors

Selected range

Filename D:\EAC – Hellixxx rip\Motorhead – 1993 – Bastards (TECX-25664).wav

Peak level 99.3 %
Extraction speed 7.0 X
Range quality 99.9 %
Test CRC 186CBDF7
Copy CRC 186CBDF7
Copy OK

No errors occurred

AccurateRip summary

Track 1 accurately ripped (confidence 1) [42431167] (AR v2)
Track 2 accurately ripped (confidence 1) [926A93C2] (AR v2)
Track 3 accurately ripped (confidence 1) [C9EAA702] (AR v2)
Track 4 accurately ripped (confidence 1) [A1794792] (AR v2)
Track 5 accurately ripped (confidence 1) [165BF66D] (AR v2)
Track 6 accurately ripped (confidence 1) [9C57E1C4] (AR v2)
Track 7 accurately ripped (confidence 1) [C12BB7FA] (AR v2)
Track 8 accurately ripped (confidence 1) [0BC50A5E] (AR v2)
Track 9 accurately ripped (confidence 1) [F14F8D26] (AR v2)
Track 10 accurately ripped (confidence 1) [E4A8F6D3] (AR v2)
Track 11 accurately ripped (confidence 1) [39C7123B] (AR v2)
Track 12 accurately ripped (confidence 1) [5C7FD211] (AR v2)

All tracks accurately ripped

End of status report

==== Log checksum A0A001E7EB49120FE061459B3A98C9BE0995E16844CB3B7EC2A931A7F599D9C0 ====

REM GENRE “Heavy Metal”
REM DATE 1993
REM DISCID B00B420C
REM COMMENT “ExactAudioCopy v1.0b3”
PERFORMER “Motorhead”
TITLE “Bastards”
FILE “Motorhead – 1993 – Bastards (TECX-25664).flac” WAVE
TRACK 01 AUDIO
TITLE “On Your Feet Or On Your Knees”
PERFORMER “Motorhead”
INDEX 01 00:00:00
TRACK 02 AUDIO
TITLE “Burner”
PERFORMER “Motorhead”
INDEX 01 02:34:10
TRACK 03 AUDIO
TITLE “Death Or Glory”
PERFORMER “Motorhead”
INDEX 01 05:27:03
TRACK 04 AUDIO
TITLE “I Am The Sword”
PERFORMER “Motorhead”
INDEX 01 10:17:40
TRACK 05 AUDIO
TITLE “Born To Raise Hell”
PERFORMER “Motorhead”
INDEX 01 14:45:35
TRACK 06 AUDIO
TITLE “Don’t Let Daddy Kiss Me”
PERFORMER “Motorhead”
INDEX 01 19:44:18
TRACK 07 AUDIO
TITLE “Bad Woman”
PERFORMER “Motorhead”
INDEX 01 23:48:18
TRACK 08 AUDIO
TITLE “Liar”
PERFORMER “Motorhead”
INDEX 01 27:06:38
TRACK 09 AUDIO
TITLE “Lost In The Ozone”
PERFORMER “Motorhead”
INDEX 01 31:18:58
TRACK 10 AUDIO
TITLE “I’m Your Man”
PERFORMER “Motorhead”
INDEX 01 34:46:38
TRACK 11 AUDIO
TITLE “We Bring The Shake”
PERFORMER “Motorhead”
INDEX 01 38:14:68
TRACK 12 AUDIO
TITLE “Devils”
PERFORMER “Motorhead”
INDEX 01 42:03:00


0

Publication author

offline 5 days

Chaos

3
Comments: 4Publics: 3565Registration: 02-02-2019
Spread the Download

Leave a Reply

Your email address will not be published. Required fields are marked *

Enter the text from the image below
 

This site uses Akismet to reduce spam. Learn how your comment data is processed.