Moon Goose – Source Code




Artist: Moon Goose
Year: 2019
Genre: Rock
Notes: Discogs
Add. Notes:
Cover incl.: Yes
Encoder: FLAC
Bitrate: ~1000 kBit/s (44.1 kHz/16 Bit/s)
Log & Cue incl.: Yes
Size: 483,7 MB
Password: “slam” (without ” “)


All Downloads/Hosters are compatible

Download 1
KatFile.com
Turbobit.net
FileFactory.com
Rapidgator.net
Download 2
KatFile.com
Turbobit.net
FileFactory.com
Rapidgator.net

Tracklist:

1 Second Life 
2 Knifeless Skinning 
3 Le Comte 
4 The Mysterious Coffins of Arthur's Seat 
5 Goldfish In A Bag 
6 Trains 
7 Joey Gets A Candle 
8 Carnage 
9 Dark Shit 
10 Garway Witch Trial 
11 Parameter 5 
12 Fist Fight At The Bingo

EAC-Log, CUE-Sheed & NFO:

Click to open spoiler
foobar2000 1.4.6 / Dynamic Range Meter 1.1.1
log date: 2019-05-12 06:43:45

——————————————————————————–
Analyzed: Moon Goose / Source Code
——————————————————————————–

DR Peak RMS Duration Track
——————————————————————————–
DR6 0.00 dB -7.25 dB 7:06 01-Second Life
DR7 0.00 dB -8.26 dB 6:15 02-Knifeless Skinning
DR7 0.00 dB -8.86 dB 5:32 03-Le Comte
DR8 0.00 dB -9.21 dB 6:36 04-The Mysterious Coffins of Arthur’s Seat
DR6 0.00 dB -6.74 dB 3:20 05-Goldfish in a Bag
DR8 0.00 dB -9.72 dB 8:42 06-Trains
DR7 0.00 dB -9.68 dB 6:17 07-Joey Gets a Candle (Swayze Meld)
DR7 0.00 dB -9.30 dB 4:40 08-Carnage
DR7 0.00 dB -8.48 dB 6:28 09-Dark Shit
DR7 0.00 dB -8.78 dB 7:22 10-Garway Witch Trial
DR7 0.00 dB -8.18 dB 3:32 11-Parameter 5
DR6 0.00 dB -6.47 dB 7:59 12-Fist Fight at the Bingo
——————————————————————————–

Number of tracks: 12
Official DR value: DR7

Samplerate: 44100 Hz
Channels: 2
Bits per sample: 16
Bitrate: 975 kbps
Codec: FLAC
================================================================================

———————–

DON’T MODIFY THIS FILE

———————–

PERFORMER: auCDtect Task Manager, ver. 1.6.0 RC1 build 1.6.0.1
Copyright (c) 2008-2010 y-soft. All rights reserved
http://y-soft.org

ANALYZER: auCDtect: CD records authenticity detector, version 0.8.2
Copyright (c) 2004 Oleg Berngardt. All rights reserved.
Copyright (c) 2004 Alexander Djourik. All rights reserved.

FILE: 12 Fist Fight at the Bingo.flac
Size: 58806281 Hash: 8E63B30A426E549A1E365C3B85C7DC13 Accuracy: -m0
Conclusion: CDDA 100%
Signature: 62D5534DA90D6480A98F091184D9A82B7C8317D1
FILE: 11 Parameter 5.flac
Size: 25401528 Hash: EFEA28462FEF7424243B579675CBFC93 Accuracy: -m0
Conclusion: CDDA 100%
Signature: 21919ACBD961E65B17125182912C071887BCBC25
FILE: 10 Garway Witch Trial.flac
Size: 49565392 Hash: EC436B289A27C81990E0C3BD88EAFB2D Accuracy: -m0
Conclusion: CDDA 100%
Signature: AF4ACFC9D321B912E31239BA2E2202612BF32E96
FILE: 09 Dark Shit.flac
Size: 41778857 Hash: AA1574109DC29311D434DB38E60A32AD Accuracy: -m0
Conclusion: CDDA 100%
Signature: 975C79F7856B89DF743F3D13F550F319A0B072E6
FILE: 08 Carnage.flac
Size: 31483616 Hash: 2F0106C593DF92C834459506A6AF5DA2 Accuracy: -m0
Conclusion: CDDA 100%
Signature: 8690DC520B39E7A4431A6AAD068A96C15579661F
FILE: 07 Joey Gets a Candle (Swayze Meld).flac
Size: 40760184 Hash: 8EA38CA6006F547CB75DD97EF598AF1F Accuracy: -m0
Conclusion: CDDA 100%
Signature: 5298437999148B60C417311361EFCD781DBB6691
FILE: 06 Trains.flac
Size: 55449522 Hash: 8B4C2047790885367047F08D716D10A5 Accuracy: -m0
Conclusion: CDDA 100%
Signature: 08433CBB40209897F08E734209248AF23357EC60
FILE: 05 Goldfish in a Bag.flac
Size: 24156546 Hash: D1B34FB1DE3B6FFA45549F980FECF5C2 Accuracy: -m0
Conclusion: CDDA 99%
Signature: B87EAEB2965D1526C4F522991FA9D66C92089187
FILE: 04 The Mysterious Coffins of Arthur’s Seat.flac
Size: 45902948 Hash: 6136DE84DB5F608318CEBADE88EC3A05 Accuracy: -m0
Conclusion: CDDA 100%
Signature: 4EA774AD4A556EEB5BC70E08FEA3C1B360B61CD6
FILE: 03 Le Comte.flac
Size: 40275094 Hash: A113AAE5A4126EAB32AC7936277E249A Accuracy: -m0
Conclusion: CDDA 100%
Signature: BD8E76E766553342CCD9F3CBD6181CDBF2406B19
FILE: 02 Knifeless Skinning.flac
Size: 43055607 Hash: C5AF8FB6BE904F0E8008AAEEB1F916F6 Accuracy: -m0
Conclusion: CDDA 100%
Signature: 5D925CD3C6D3CCB888EC978F7355714AA318A01C
FILE: 01 Second Life.flac
Size: 50526772 Hash: 810468E0C49CB640B7A20DA2A2DD46CE Accuracy: -m0
Conclusion: CDDA 100%
Signature: 51687C595DDD9D6B84FE5F0B3848B97CD9EB09F5


Leave a Reply

Your email address will not be published. Required fields are marked *

This site uses Akismet to reduce spam. Learn how your comment data is processed.