Minor Threat – Complete Discography (Remastered)




Artist: Minor Threat
Year: 2003
Genre: Hardcore
Notes: Discogs
Add. Notes: Remastered
Cover incl.: Yes
Encoder: FLAC
Bitrate: ~900 kBit/s (44.1 kHz/16 Bit/s)
Log & Cue incl.: Yes
Size: 320,25 MB
Password: “slam” (without ” “)


All Downloads/Hosters are compatible

Download 1
Turbobit.net
Rapidgator.net
UploadEver.com
KatFile.com
UsersDrive.com
Download 2
Turbobit.net
Rapidgator.net
UploadEver.com
KatFile.com
UsersDrive.com
Download 3
Turbobit.net
Rapidgator.net
UploadEver.com
KatFile.com
UsersDrive.com

Tracklist:

1 - Filler - 1:32
2 - I Don't Wanna Hear It - 1:14
3 - Seeing Red - 1:03
4 - Straight Edge - 0:45
5 - Small Man, Big Mouth - 0:55
6 - Screaming At A Wall - 1:32
7 - Bottled Violence - 0:54
8 - Minor Threat - 1:29
9 - Stand Up - 0:52
10 - 12XU - 1:04
11 - In My Eyes - 2:49
12 - Out Of Step (With The World) - 1:15
13 - Guilty Of Being White - 1:17
14 - Steppin' Stone - 2:12
15 - Betray - 3:04
16 - It Follows - 1:50
17 - Think Again - 2:18
18 - Look Back And Laugh - 3:16
19 - Sob Story - 1:50
20 - No Reason - 1:57
21 - Little Friend - 2:18
22 - Out Of Step - 1:20
23 - Cashing In - 3:43
24 - Stumped - 1:53
25 - Good Guys (Don't Wear White) - 2:22
26 - Salad Days - 2:46

EAC-Log, CUE-Sheed & NFO:

Click to open spoiler
Exact Audio Copy V0.99 prebeta 4 from 23. January 2008

EAC extraction logfile from 1. June 2008, 14:41

Minor Threat / Complete Discography

Used drive : _NEC DVD_RW ND-4571A Adapter: 1 ID: 0

Read mode : Secure
Utilize accurate stream : Yes
Defeat audio cache : Yes
Make use of C2 pointers : No

Read offset correction : 48
Overread into Lead-In and Lead-Out : No
Fill up missing offset samples with silence : Yes
Delete leading and trailing silent blocks : No
Null samples used in CRC calculations : Yes
Used interface : Installed external ASPI interface

Used output format : Internal WAV Routines
Sample format : 44.100 Hz; 16 Bit; Stereo

TOC of the extracted CD

Track | Start | Length | Start sector | End sector
———————————————————
1 | 0:00.00 | 1:32.52 | 0 | 6951
2 | 1:32.52 | 1:14.08 | 6952 | 12509
3 | 2:46.60 | 1:03.01 | 12510 | 17235
4 | 3:49.61 | 0:45.12 | 17236 | 20622
5 | 4:34.73 | 0:55.38 | 20623 | 24785
6 | 5:30.36 | 1:32.05 | 24786 | 31690
7 | 7:02.41 | 0:54.06 | 31691 | 35746
8 | 7:56.47 | 1:29.12 | 35747 | 42433
9 | 9:25.59 | 0:52.56 | 42434 | 46389
10 | 10:18.40 | 1:04.51 | 46390 | 51240
11 | 11:23.16 | 2:49.24 | 51241 | 63939
12 | 14:12.40 | 1:15.68 | 63940 | 69632
13 | 15:28.33 | 1:17.14 | 69633 | 75421
14 | 16:45.47 | 2:12.04 | 75422 | 85325
15 | 18:57.51 | 3:04.44 | 85326 | 99169
16 | 22:02.20 | 1:50.42 | 99170 | 107461
17 | 23:52.62 | 2:18.22 | 107462 | 117833
18 | 26:11.09 | 3:16.36 | 117834 | 132569
19 | 29:27.45 | 1:50.44 | 132570 | 140863
20 | 31:18.14 | 1:57.45 | 140864 | 149683
21 | 33:15.59 | 2:18.08 | 149684 | 160041
22 | 35:33.67 | 1:20.59 | 160042 | 166100
23 | 36:54.51 | 3:43.42 | 166101 | 182867
24 | 40:38.18 | 1:53.00 | 182868 | 191342
25 | 42:31.18 | 2:22.36 | 191343 | 202028
26 | 44:53.54 | 2:46.09 | 202029 | 214487

Range status and errors

Selected range

Filename E:\Rip\Minor Threat – Complete Discography.wav

Peak level 98.8 %
Range quality 100.0 %
Test CRC 4A9B4655
Copy CRC 4A9B4655
Copy OK

No errors occurred

AccurateRip summary

Track 1 accurately ripped (confidence 11) [FA5E4D41]
Track 2 accurately ripped (confidence 11) [752C19B1]
Track 3 accurately ripped (confidence 11) [12015CF3]
Track 4 accurately ripped (confidence 11) [4F85D34A]
Track 5 accurately ripped (confidence 11) [3B944D40]
Track 6 accurately ripped (confidence 11) [793FBBF4]
Track 7 accurately ripped (confidence 11) [CF12DDED]
Track 8 accurately ripped (confidence 11) [BC8E4DC5]
Track 9 accurately ripped (confidence 11) [BD2D961D]
Track 10 accurately ripped (confidence 11) [099081E7]
Track 11 accurately ripped (confidence 11) [1D2FDDC3]
Track 12 accurately ripped (confidence 11) [1799D4A8]
Track 13 accurately ripped (confidence 11) [5DE67C19]
Track 14 accurately ripped (confidence 11) [A7D42644]
Track 15 accurately ripped (confidence 11) [58CDDD9C]
Track 16 accurately ripped (confidence 11) [C477E819]
Track 17 accurately ripped (confidence 11) [17DD78C8]
Track 18 accurately ripped (confidence 11) [7CA3A67A]
Track 19 accurately ripped (confidence 11) [4281B61A]
Track 20 accurately ripped (confidence 11) [05F58C63]
Track 21 accurately ripped (confidence 11) [E3AAD8BB]
Track 22 accurately ripped (confidence 11) [E7D45309]
Track 23 accurately ripped (confidence 11) [AD003E2F]
Track 24 accurately ripped (confidence 11) [D78D373C]
Track 25 accurately ripped (confidence 11) [2065DA55]
Track 26 accurately ripped (confidence 10) [75D59711]

All tracks accurately ripped

End of status report

REM GENRE Hardcore
REM DATE 1989
REM DISCID 660B2B1A
REM COMMENT “ExactAudioCopy v0.99pb4”
PERFORMER “Minor Threat”
TITLE “Complete Discography”
FILE “Minor Threat – Complete Discography.flac” FLAC
TRACK 01 AUDIO
TITLE “Filler”
PERFORMER “Minor Threat”
ISRC 000000000000
INDEX 01 00:00:00
TRACK 02 AUDIO
TITLE “I Don’t Wanna Hear It”
PERFORMER “Minor Threat”
ISRC 000000000000
INDEX 01 01:32:52
TRACK 03 AUDIO
TITLE “Seeing Red”
PERFORMER “Minor Threat”
ISRC 000000000000
INDEX 01 02:46:60
TRACK 04 AUDIO
TITLE “Straight Edge”
PERFORMER “Minor Threat”
ISRC 000000000000
INDEX 01 03:49:61
TRACK 05 AUDIO
TITLE “Small Man, Big Mouth”
PERFORMER “Minor Threat”
ISRC 000000000000
INDEX 01 04:34:73
TRACK 06 AUDIO
TITLE “Screaming At A Wall”
PERFORMER “Minor Threat”
ISRC 000000000000
INDEX 01 05:30:36
TRACK 07 AUDIO
TITLE “Bottled Violence”
PERFORMER “Minor Threat”
ISRC 000000000000
INDEX 01 07:02:41
TRACK 08 AUDIO
TITLE “Minor Threat”
PERFORMER “Minor Threat”
ISRC 000000000000
INDEX 01 07:56:47
TRACK 09 AUDIO
TITLE “Stand Up”
PERFORMER “Minor Threat”
ISRC 000000000000
INDEX 01 09:25:59
TRACK 10 AUDIO
TITLE “12XU”
PERFORMER “Minor Threat”
ISRC 000000000000
INDEX 01 10:18:40
TRACK 11 AUDIO
TITLE “In My Eyes”
PERFORMER “Minor Threat”
ISRC 000000000000
INDEX 01 11:23:16
TRACK 12 AUDIO
TITLE “Out Of Step (With The World)”
PERFORMER “Minor Threat”
ISRC 000000000000
INDEX 01 14:12:40
TRACK 13 AUDIO
TITLE “Guilty Of Being White”
PERFORMER “Minor Threat”
ISRC 000000000000
INDEX 01 15:28:33
TRACK 14 AUDIO
TITLE “Steppin’ Stone”
PERFORMER “Minor Threat”
ISRC 000000000000
INDEX 01 16:45:47
TRACK 15 AUDIO
TITLE “Betray”
PERFORMER “Minor Threat”
ISRC 000000000000
INDEX 01 18:57:51
TRACK 16 AUDIO
TITLE “It Follows”
PERFORMER “Minor Threat”
ISRC 000000000000
INDEX 01 22:02:20
TRACK 17 AUDIO
TITLE “Think Again”
PERFORMER “Minor Threat”
ISRC 000000000000
INDEX 01 23:52:62
TRACK 18 AUDIO
TITLE “Look Back And Laugh”
PERFORMER “Minor Threat”
ISRC 000000000000
INDEX 01 26:11:09
TRACK 19 AUDIO
TITLE “Sob Story”
PERFORMER “Minor Threat”
ISRC 000000000000
INDEX 01 29:27:45
TRACK 20 AUDIO
TITLE “No Reason”
PERFORMER “Minor Threat”
ISRC 000000000000
INDEX 01 31:18:14
TRACK 21 AUDIO
TITLE “Little Friend”
PERFORMER “Minor Threat”
ISRC 000000000000
INDEX 01 33:15:59
TRACK 22 AUDIO
TITLE “Out Of Step”
PERFORMER “Minor Threat”
ISRC 000000000000
INDEX 01 35:33:67
TRACK 23 AUDIO
TITLE “Cashing In”
PERFORMER “Minor Threat”
ISRC 000000000000
INDEX 01 36:54:51
TRACK 24 AUDIO
TITLE “Stumped”
PERFORMER “Minor Threat”
ISRC 000000000000
INDEX 01 40:38:18
TRACK 25 AUDIO
TITLE “Good Guys (Don’t Wear White)”
PERFORMER “Minor Threat”
ISRC 000000000000
INDEX 01 42:31:18
TRACK 26 AUDIO
TITLE “Salad Days”
PERFORMER “Minor Threat”
ISRC 000000000000
INDEX 01 44:53:54


Leave a Reply

Your email address will not be published. Required fields are marked *

This site uses Akismet to reduce spam. Learn how your comment data is processed.