Millencolin – Tiny Tunes




Artist: Millencolin
Year: 1994
Genre: Punk
Notes: Discogs
Add. Notes:
Cover incl.: Yes
Encoder: FLAC
Bitrate: ~1100 kBit/s (44.1 kHz/16 Bit/s)
Log & Cue incl.: Yes
Size: 234,19 MB
Password: “slam” (without ” “)


All Downloads/Hosters are compatible

Download 1
Turbobit.net
Rapidgator.net
UploadEver.com
KatFile.com
UsersDrive.com
Download 2
Turbobit.net
Rapidgator.net
UploadEver.com
KatFile.com
UsersDrive.com
Download 3
Turbobit.net
Rapidgator.net
UploadEver.com
KatFile.com
UsersDrive.com

Tracklist:

1 - Mr. Clean - 2:41
2 - Chiquita Chaser - 2:40
3 - Disney Time - 3:40
4 - Domestic Subway - 1:38
5 - Fazil's Friend - 1:52
6 - Leona - 2:21
7 - House Of Blend - 2:56
8 - Da Strike - 3:01
9 - Mystic Reptile - 2:45
10 - Dance Craze - 2:01
11 - The Einstein Crew - 2:58
12 - Take It Or Leave It - 2:43

EAC-Log, CUE-Sheed & NFO:

Click to open spoiler
Exact Audio Copy V0.99 prebeta 4 from 23. January 2008

EAC extraction logfile from 25. August 2008, 12:14

Millencolin / Tiny Tunes

Used drive : _NEC DVD_RW ND-3500AG Adapter: 0 ID: 0

Read mode : Secure
Utilize accurate stream : Yes
Defeat audio cache : Yes
Make use of C2 pointers : No

Read offset correction : 48
Overread into Lead-In and Lead-Out : No
Fill up missing offset samples with silence : Yes
Delete leading and trailing silent blocks : No
Null samples used in CRC calculations : Yes
Used interface : Native Win32 interface for Win NT & 2000
Gap handling : Appended to previous track

Used output format : User Defined Encoder
Selected bitrate : 768 kBit/s
Quality : High
Add ID3 tag : No
Command line compressor : C:\Program Files (x86)\Exact Audio Copy\FLAC\FLAC.EXE
Additional command line options : -V -8 -T “artist=%a” -T “title=%t” -T “album=%g” -T “date=%y” -T “tracknumber=%n” -T “genre=%m” %s

TOC of the extracted CD

Track | Start | Length | Start sector | End sector
———————————————————
1 | 0:00.00 | 2:41.45 | 0 | 12119
2 | 2:41.45 | 2:40.05 | 12120 | 24124
3 | 5:21.50 | 3:40.73 | 24125 | 40697
4 | 9:02.48 | 1:38.32 | 40698 | 48079
5 | 10:41.05 | 1:52.55 | 48080 | 56534
6 | 12:33.60 | 2:21.53 | 56535 | 67162
7 | 14:55.38 | 2:56.45 | 67163 | 80407
8 | 17:52.08 | 3:01.20 | 80408 | 94002
9 | 20:53.28 | 2:45.42 | 94003 | 106419
10 | 23:38.70 | 2:01.28 | 106420 | 115522
11 | 25:40.23 | 2:58.30 | 115523 | 128902
12 | 28:38.53 | 2:43.62 | 128903 | 141189

Track 1

Filename f:\EACrips\Millencolin – Tiny Tunes\01 – Millencolin – Mr. Clean.wav

Pre-gap length 0:00:02.00

Peak level 100.0 %
Track quality 100.0 %
Test CRC 865342BA
Copy CRC 865342BA
Accurately ripped (confidence 9) [AAA89D49]
Copy OK

Track 2

Filename f:\EACrips\Millencolin – Tiny Tunes\02 – Millencolin – Chiquita Chaser.wav

Pre-gap length 0:00:03.80

Peak level 99.9 %
Track quality 99.9 %
Test CRC E3AC590C
Copy CRC E3AC590C
Accurately ripped (confidence 9) [D07C21E1]
Copy OK

Track 3

Filename f:\EACrips\Millencolin – Tiny Tunes\03 – Millencolin – Disney Time.wav

Pre-gap length 0:00:02.46

Peak level 99.9 %
Track quality 100.0 %
Test CRC 4A4E2CC7
Copy CRC 4A4E2CC7
Accurately ripped (confidence 9) [44FB6AB1]
Copy OK

Track 4

Filename f:\EACrips\Millencolin – Tiny Tunes\04 – Millencolin – Domestic Subway.wav

Pre-gap length 0:00:03.97

Peak level 100.0 %
Track quality 100.0 %
Test CRC 2FA619DF
Copy CRC 2FA619DF
Accurately ripped (confidence 9) [BF226862]
Copy OK

Track 5

Filename f:\EACrips\Millencolin – Tiny Tunes\05 – Millencolin – Fazil’s Friend.wav

Pre-gap length 0:00:02.49

Peak level 100.0 %
Track quality 100.0 %
Test CRC FD4EF05A
Copy CRC FD4EF05A
Accurately ripped (confidence 9) [74C72EED]
Copy OK

Track 6

Filename f:\EACrips\Millencolin – Tiny Tunes\06 – Millencolin – Leona.wav

Pre-gap length 0:00:02.06

Peak level 99.9 %
Track quality 100.0 %
Test CRC 3D0E4058
Copy CRC 3D0E4058
Accurately ripped (confidence 9) [8C3E966A]
Copy OK

Track 7

Filename f:\EACrips\Millencolin – Tiny Tunes\07 – Millencolin – House Of Blend.wav

Pre-gap length 0:00:01.46

Peak level 100.0 %
Track quality 100.0 %
Test CRC A8A94A8A
Copy CRC A8A94A8A
Accurately ripped (confidence 9) [65052495]
Copy OK

Track 8

Filename f:\EACrips\Millencolin – Tiny Tunes\08 – Millencolin – Da Strike.wav

Pre-gap length 0:00:02.33

Peak level 99.9 %
Track quality 100.0 %
Test CRC 8DBF03C0
Copy CRC 8DBF03C0
Accurately ripped (confidence 9) [768EB75A]
Copy OK

Track 9

Filename f:\EACrips\Millencolin – Tiny Tunes\09 – Millencolin – Mystic Reptile.wav

Pre-gap length 0:00:02.20

Peak level 100.0 %
Track quality 100.0 %
Test CRC CF709CC0
Copy CRC CF709CC0
Accurately ripped (confidence 9) [4BB4DFF4]
Copy OK

Track 10

Filename f:\EACrips\Millencolin – Tiny Tunes\10 – Millencolin – Dance Craze.wav

Pre-gap length 0:00:01.56

Peak level 100.0 %
Track quality 100.0 %
Test CRC D334C53E
Copy CRC D334C53E
Accurately ripped (confidence 7) [5B3B8E69]
Copy OK

Track 11

Filename f:\EACrips\Millencolin – Tiny Tunes\11 – Millencolin – The Einstein Crew.wav

Pre-gap length 0:00:02.46

Peak level 100.0 %
Track quality 100.0 %
Test CRC 9ADD55A2
Copy CRC 9ADD55A2
Accurately ripped (confidence 8) [F14B5712]
Copy OK

Track 12

Filename f:\EACrips\Millencolin – Tiny Tunes\12 – Millencolin – Take It Or Leave It.wav

Pre-gap length 0:00:02.00

Peak level 100.0 %
Track quality 100.0 %
Test CRC 83475A39
Copy CRC 83475A39
Accurately ripped (confidence 8) [3346A7D6]
Copy OK

All tracks accurately ripped

No errors occurred

End of status report

REM GENRE Punk
REM DATE 1994
REM DISCID 8D075A0C
REM COMMENT “ExactAudioCopy v0.99pb4”
PERFORMER “Millencolin”
TITLE “Tiny Tunes”
FILE “01 – Millencolin – Mr. Clean.wav” WAVE
TRACK 01 AUDIO
TITLE “Mr. Clean”
PERFORMER “Millencolin”
INDEX 01 00:00:00
TRACK 02 AUDIO
TITLE “Chiquita Chaser”
PERFORMER “Millencolin”
INDEX 00 02:37:60
FILE “02 – Millencolin – Chiquita Chaser.wav” WAVE
INDEX 01 00:00:00
TRACK 03 AUDIO
TITLE “Disney Time”
PERFORMER “Millencolin”
INDEX 00 02:37:45
FILE “03 – Millencolin – Disney Time.wav” WAVE
INDEX 01 00:00:00
TRACK 04 AUDIO
TITLE “Domestic Subway”
PERFORMER “Millencolin”
INDEX 00 03:37:00
FILE “04 – Millencolin – Domestic Subway.wav” WAVE
INDEX 01 00:00:00
TRACK 05 AUDIO
TITLE “Fazil’s Friend”
PERFORMER “Millencolin”
INDEX 00 01:35:70
FILE “05 – Millencolin – Fazil’s Friend.wav” WAVE
INDEX 01 00:00:00
TRACK 06 AUDIO
TITLE “Leona”
PERFORMER “Millencolin”
INDEX 00 01:50:50
FILE “06 – Millencolin – Leona.wav” WAVE
INDEX 01 00:00:00
TRACK 07 AUDIO
TITLE “House Of Blend”
PERFORMER “Millencolin”
INDEX 00 02:20:18
FILE “07 – Millencolin – House Of Blend.wav” WAVE
INDEX 01 00:00:00
TRACK 08 AUDIO
TITLE “Da Strike”
PERFORMER “Millencolin”
INDEX 00 02:54:20
FILE “08 – Millencolin – Da Strike.wav” WAVE
INDEX 01 00:00:00
TRACK 09 AUDIO
TITLE “Mystic Reptile”
PERFORMER “Millencolin”
INDEX 00 02:59:05
FILE “09 – Millencolin – Mystic Reptile.wav” WAVE
INDEX 01 00:00:00
TRACK 10 AUDIO
TITLE “Dance Craze”
PERFORMER “Millencolin”
INDEX 00 02:44:00
FILE “10 – Millencolin – Dance Craze.wav” WAVE
INDEX 01 00:00:00
TRACK 11 AUDIO
TITLE “The Einstein Crew”
PERFORMER “Millencolin”
INDEX 00 01:58:68
FILE “11 – Millencolin – The Einstein Crew.wav” WAVE
INDEX 01 00:00:00
TRACK 12 AUDIO
TITLE “Take It Or Leave It”
PERFORMER “Millencolin”
INDEX 00 02:56:30
FILE “12 – Millencolin – Take It Or Leave It.wav” WAVE
INDEX 01 00:00:00

Leave a Reply

Your email address will not be published. Required fields are marked *

This site uses Akismet to reduce spam. Learn how your comment data is processed.