Millencolin – The Melancholy Collection




Artist: Millencolin
Year: 1999
Genre: Hardcore
Notes: Discogs
Add. Notes:
Cover incl.: Yes
Encoder: FLAC
Bitrate: ~900 kBit/s (44.1 kHz/16 Bit/s)
Log & Cue incl.: Yes
Size: 383,72 MB
Password: “slam” (without ” “)


All Downloads/Hosters are compatible

Download 1
Turbobit.net
Rapidgator.net
UploadEver.com
KatFile.com
UsersDrive.com
Download 2
Turbobit.net
Rapidgator.net
UploadEver.com
KatFile.com
UsersDrive.com
Download 3
Turbobit.net
Rapidgator.net
UploadEver.com
KatFile.com
UsersDrive.com

Tracklist:

1 - In A Room - 2:56
2 - Pain - 2:20
3 - Shake Me - 2:14
4 - Melack - 2:13
5 - Nosepicker - 3:38
6 - Use Your Nose - 1:36
7 - Flippin' Beans - 2:35
8 - Yellow Dog - 2:58
9 - Knowledge - 1:31
10 - A Whole Lot Less - 1:55
11 - Coolidge - 2:23
12 - That's Up To Me - 2:00
13 - A Bit Of Muslin - 1:56
14 - Melancholy Protection - 1:25
15 - Shake Me (Live) - 2:11
16 - Niap - 2:37
17 - Every Breath You Take - 2:06
18 - 9 To 5 - 3:01
19 - Dragster - 2:03
20 - An Elf And His Zippo - 1:55
21 - Israelites - 2:25
22 - Vixen - 1:49

EAC-Log, CUE-Sheed & NFO:

Click to open spoiler
EAC extraction logfile from 18. August 2007, 22:09 for CD
Millencolin / The Melancholy Collection

Used drive : TSSTcorpCD/DVDW SH-S182D Adapter: 1 ID: 0
Read mode : Secure with NO C2, accurate stream, disable cache
Read offset correction : 6
Overread into Lead-In and Lead-Out : No

Used output format : C:\Program\Exact Audio Copy\flac.exe (User Defined Encoder)
320 kBit/s
Additional command line options : -V -5 -T “artist=%a” -T “title=%t” -T “album=%g” -T “date=%y” -T “tracknumber=%n” -T “genre=%m” %s

Other options :
Fill up missing offset samples with silence : Yes
Delete leading and trailing silent blocks : No
Installed external ASPI interface

Track 1
Filename D:\Musik\Millencolin.-.The.melancholy.collection.flac\Millencolin – 01 – In A Room.wav

Pre-gap length 0:00:02.00

Peak level 100.0 %
Track quality 100.0 %
Test CRC A0C23963
Copy CRC A0C23963
Copy OK

Track 2
Filename D:\Musik\Millencolin.-.The.melancholy.collection.flac\Millencolin – 02 – Pain.wav

Pre-gap length 0:00:00.61

Peak level 100.0 %
Track quality 100.0 %
Test CRC 1CBCC3E0
Copy CRC 1CBCC3E0
Copy OK

Track 3
Filename D:\Musik\Millencolin.-.The.melancholy.collection.flac\Millencolin – 03 – Shake Me.wav

Pre-gap length 0:00:00.49

Peak level 100.0 %
Track quality 100.0 %
Test CRC 5BAFB244
Copy CRC 5BAFB244
Copy OK

Track 4
Filename D:\Musik\Millencolin.-.The.melancholy.collection.flac\Millencolin – 04 – Melack.wav

Peak level 100.0 %
Track quality 100.0 %
Test CRC 90CD1283
Copy CRC 90CD1283
Copy OK

Track 5
Filename D:\Musik\Millencolin.-.The.melancholy.collection.flac\Millencolin – 05 – Nosepicker.wav

Peak level 100.0 %
Track quality 100.0 %
Test CRC 516745E5
Copy CRC 516745E5
Copy OK

Track 6
Filename D:\Musik\Millencolin.-.The.melancholy.collection.flac\Millencolin – 06 – Use Your Nose.wav

Peak level 100.0 %
Track quality 100.0 %
Test CRC B00B9B2F
Copy CRC B00B9B2F
Copy OK

Track 7
Filename D:\Musik\Millencolin.-.The.melancholy.collection.flac\Millencolin – 07 – Flippin’ Beans.wav

Pre-gap length 0:00:00.38

Peak level 100.0 %
Track quality 100.0 %
Test CRC FF6693D4
Copy CRC FF6693D4
Copy OK

Track 8
Filename D:\Musik\Millencolin.-.The.melancholy.collection.flac\Millencolin – 08 – Yellow Dog.wav

Pre-gap length 0:00:01.56

Peak level 100.0 %
Track quality 99.9 %
Test CRC FA14BC9D
Copy CRC FA14BC9D
Copy OK

Track 9
Filename D:\Musik\Millencolin.-.The.melancholy.collection.flac\Millencolin – 09 – Knowledge.wav

Pre-gap length 0:00:00.70

Peak level 99.7 %
Track quality 99.8 %
Test CRC 05976D03
Copy CRC 05976D03
Copy OK

Track 10
Filename D:\Musik\Millencolin.-.The.melancholy.collection.flac\Millencolin – 10 – A Whole Lot Less.wav

Peak level 100.0 %
Track quality 100.0 %
Test CRC 656F0A7A
Copy CRC 656F0A7A
Copy OK

Track 11
Filename D:\Musik\Millencolin.-.The.melancholy.collection.flac\Millencolin – 11 – Coolidge.wav

Pre-gap length 0:00:00.50

Peak level 100.0 %
Track quality 99.9 %
Test CRC 66749A03
Copy CRC 66749A03
Copy OK

Track 12
Filename D:\Musik\Millencolin.-.The.melancholy.collection.flac\Millencolin – 12 – That’s Up To Me.wav

Pre-gap length 0:00:00.41

Peak level 100.0 %
Track quality 100.0 %
Test CRC FB042D82
Copy CRC FB042D82
Copy OK

Track 13
Filename D:\Musik\Millencolin.-.The.melancholy.collection.flac\Millencolin – 13 – A Bit Of Muslin.wav

Peak level 100.0 %
Track quality 100.0 %
Test CRC 36DF6CE0
Copy CRC 36DF6CE0
Copy OK

Track 14
Filename D:\Musik\Millencolin.-.The.melancholy.collection.flac\Millencolin – 14 – Melancholy Protection.wav

Peak level 100.0 %
Track quality 100.0 %
Test CRC F1CB6242
Copy CRC F1CB6242
Copy OK

Track 15
Filename D:\Musik\Millencolin.-.The.melancholy.collection.flac\Millencolin – 15 – Shake Me (Live).wav

Peak level 100.0 %
Track quality 100.0 %
Test CRC 818BD908
Copy CRC 818BD908
Copy OK

Track 16
Filename D:\Musik\Millencolin.-.The.melancholy.collection.flac\Millencolin – 16 – Niap.wav

Peak level 99.0 %
Track quality 99.9 %
Test CRC 12A84FF7
Copy CRC 12A84FF7
Copy OK

Track 17
Filename D:\Musik\Millencolin.-.The.melancholy.collection.flac\Millencolin – 17 – Every Breath You Take.wav

Peak level 100.0 %
Track quality 100.0 %
Test CRC 4A0A53A7
Copy CRC 4A0A53A7
Copy OK

Track 18
Filename D:\Musik\Millencolin.-.The.melancholy.collection.flac\Millencolin – 18 – 9 To 5.wav

Pre-gap length 0:00:00.81

Peak level 100.0 %
Track quality 100.0 %
Test CRC 748121AE
Copy CRC 748121AE
Copy OK

Track 19
Filename D:\Musik\Millencolin.-.The.melancholy.collection.flac\Millencolin – 19 – Dragster.wav

Pre-gap length 0:00:00.26

Peak level 100.0 %
Track quality 100.0 %
Test CRC CB3864E4
Copy CRC CB3864E4
Copy OK

Track 20
Filename D:\Musik\Millencolin.-.The.melancholy.collection.flac\Millencolin – 20 – An Elf And His Zippo.wav

Peak level 100.0 %
Track quality 100.0 %
Test CRC B8861F22
Copy CRC B8861F22
Copy OK

Track 21
Filename D:\Musik\Millencolin.-.The.melancholy.collection.flac\Millencolin – 21 – Israelites.wav

Pre-gap length 0:00:01.80

Peak level 99.0 %
Track quality 100.0 %
Test CRC AC349168
Copy CRC AC349168
Copy OK

Track 22
Filename D:\Musik\Millencolin.-.The.melancholy.collection.flac\Millencolin – 22 – Vixen.wav

Pre-gap length 0:00:00.25

Peak level 100.0 %
Track quality 100.0 %
Test CRC B1E2ACB9
Copy CRC B1E2ACB9
Copy OK

No errors occured

End of status report

REM GENRE Punk
REM DATE 1999
REM DISCID 320BB616
REM COMMENT “ExactAudioCopy v0.95b4”
PERFORMER “Millencolin”
TITLE “The Melancholy Collection”
FILE “Millencolin – 01 – In A Room.wav” WAVE
TRACK 01 AUDIO
TITLE “In A Room”
PERFORMER “Millencolin”
INDEX 01 00:00:00
TRACK 02 AUDIO
TITLE “Pain”
PERFORMER “Millencolin”
INDEX 00 02:56:14
FILE “Millencolin – 02 – Pain.wav” WAVE
INDEX 01 00:00:00
TRACK 03 AUDIO
TITLE “Shake Me”
PERFORMER “Millencolin”
INDEX 00 02:20:26
FILE “Millencolin – 03 – Shake Me.wav” WAVE
INDEX 01 00:00:00
FILE “Millencolin – 04 – Melack.wav” WAVE
TRACK 04 AUDIO
TITLE “Melack”
PERFORMER “Millencolin”
INDEX 01 00:00:00
FILE “Millencolin – 05 – Nosepicker.wav” WAVE
TRACK 05 AUDIO
TITLE “Nosepicker”
PERFORMER “Millencolin”
INDEX 01 00:00:00
FILE “Millencolin – 06 – Use Your Nose.wav” WAVE
TRACK 06 AUDIO
TITLE “Use Your Nose”
PERFORMER “Millencolin”
INDEX 01 00:00:00
TRACK 07 AUDIO
TITLE “Flippin’ Beans”
PERFORMER “Millencolin”
INDEX 00 01:36:26
FILE “Millencolin – 07 – Flippin’ Beans.wav” WAVE
INDEX 01 00:00:00
TRACK 08 AUDIO
TITLE “Yellow Dog”
PERFORMER “Millencolin”
INDEX 00 02:33:53
FILE “Millencolin – 08 – Yellow Dog.wav” WAVE
INDEX 01 00:00:00
TRACK 09 AUDIO
TITLE “Knowledge”
PERFORMER “Millencolin”
INDEX 00 02:57:46
FILE “Millencolin – 09 – Knowledge.wav” WAVE
INDEX 01 00:00:00
FILE “Millencolin – 10 – A Whole Lot Less.wav” WAVE
TRACK 10 AUDIO
TITLE “A Whole Lot Less”
PERFORMER “Millencolin”
INDEX 01 00:00:00
TRACK 11 AUDIO
TITLE “Coolidge”
PERFORMER “Millencolin”
INDEX 00 01:54:71
FILE “Millencolin – 11 – Coolidge.wav” WAVE
INDEX 01 00:00:00
TRACK 12 AUDIO
TITLE “That’s Up To Me”
PERFORMER “Millencolin”
INDEX 00 02:23:00
FILE “Millencolin – 12 – That’s Up To Me.wav” WAVE
INDEX 01 00:00:00
FILE “Millencolin – 13 – A Bit Of Muslin.wav” WAVE
TRACK 13 AUDIO
TITLE “A Bit Of Muslin”
PERFORMER “Millencolin”
INDEX 01 00:00:00
FILE “Millencolin – 14 – Melancholy Protection.wav” WAVE
TRACK 14 AUDIO
TITLE “Melancholy Protection”
PERFORMER “Millencolin”
INDEX 01 00:00:00
FILE “Millencolin – 15 – Shake Me (Live).wav” WAVE
TRACK 15 AUDIO
TITLE “Shake Me (Live)”
PERFORMER “Millencolin”
INDEX 01 00:00:00
FILE “Millencolin – 16 – Niap.wav” WAVE
TRACK 16 AUDIO
TITLE “Niap”
PERFORMER “Millencolin”
INDEX 01 00:00:00
FILE “Millencolin – 17 – Every Breath You Take.wav” WAVE
TRACK 17 AUDIO
TITLE “Every Breath You Take”
PERFORMER “Millencolin”
INDEX 01 00:00:00
TRACK 18 AUDIO
TITLE “9 To 5”
PERFORMER “Millencolin”
INDEX 00 02:05:69
FILE “Millencolin – 18 – 9 To 5.wav” WAVE
INDEX 01 00:00:00
TRACK 19 AUDIO
TITLE “Dragster”
PERFORMER “Millencolin”
INDEX 00 03:00:70
FILE “Millencolin – 19 – Dragster.wav” WAVE
INDEX 01 00:00:00
FILE “Millencolin – 20 – An Elf And His Zippo.wav” WAVE
TRACK 20 AUDIO
TITLE “An Elf And His Zippo”
PERFORMER “Millencolin”
INDEX 01 00:00:00
TRACK 21 AUDIO
TITLE “Israelites”
PERFORMER “Millencolin”
INDEX 00 01:53:60
FILE “Millencolin – 21 – Israelites.wav” WAVE
INDEX 01 00:00:00
TRACK 22 AUDIO
TITLE “Vixen”
PERFORMER “Millencolin”
INDEX 00 02:25:25
FILE “Millencolin – 22 – Vixen.wav” WAVE
INDEX 01 00:00:00

Leave a Reply

Your email address will not be published. Required fields are marked *

This site uses Akismet to reduce spam. Learn how your comment data is processed.