Millencolin – Same Old Tunes




Artist: Millencolin
Year: 1994/1998
Genre: Punk
Notes: Discogs
Add. Notes:
Cover incl.: Yes
Encoder: FLAC
Bitrate: ~1000 kBit/s (44.1 kHz/16 Bit/s)
Log & Cue incl.: Yes
Size: 270,56 MB
Password: “slam” (without ” “)


All Downloads/Hosters are compatible

Download 1
Turbobit.net
Rapidgator.net
UploadEver.com
KatFile.com
UsersDrive.com
Download 2
Turbobit.net
Rapidgator.net
UploadEver.com
KatFile.com
UsersDrive.com
Download 3
Turbobit.net
Rapidgator.net
UploadEver.com
KatFile.com
UsersDrive.com

Tracklist:

1 - Mr. Clean - 2:40
2 - Chiquita Chaser - 2:59
3 - Diznee Time - 2:01
4 - Domestic Subway - 3:40
5 - Fazil's Friend - 1:38
6 - Leona - 1:52
7 - House Of Blend - 2:56
8 - Da Strike - 2:21
9 - Mystic Reptile - 2:38
10 - Dance Craze - 2:45
11 - The Einstein Crew - 2:43
12 - Take It Or Leave It - 2:58

EAC-Log, CUE-Sheed & NFO:

Click to open spoiler
EAC extraction logfile from 8. March 2007, 23:02 for CD
Millencolin / Same Old Tunes

Used drive : LITE-ON DVDRW SOHW-832S Adapter: 0 ID: 0
Read mode : Secure with NO C2, accurate stream, disable cache
Read offset correction : 12
Overread into Lead-In and Lead-Out : No

Used output format : C:\Program Files\FLAC\flac.exe (User Defined Encoder)
192 kBit/s
Additional command line options : -8 -A tukey(0.25) -A gauss(0.1875) -b 4096 -V -T “artist=%a” -T “title=%t” -T “album=%g” -T “date=%y” -T “tracknumber=%n” -T “genre=%m” %s –sector-align

Other options :
Fill up missing offset samples with silence : Yes
Delete leading and trailing silent blocks : No
Installed external ASPI interface

Track 1
Filename E:\rip\Millencolin – Same Old Tunes\01 – Millencolin – Mr. Clean.wav

Pre-gap length 0:00:02.00

Peak level 100.0 %
Track quality 100.0 %
Test CRC 2B525984
Copy CRC 2B525984
Copy OK

Track 2
Filename E:\rip\Millencolin – Same Old Tunes\02 – Millencolin – Chiquita Chaser.wav

Pre-gap length 0:00:02.00

Peak level 99.9 %
Track quality 99.9 %
Test CRC A860313C
Copy CRC A860313C
Copy OK

Track 3
Filename E:\rip\Millencolin – Same Old Tunes\03 – Millencolin – Disney Time.wav

Pre-gap length 0:00:02.00

Peak level 99.9 %
Track quality 100.0 %
Test CRC C8ED1CD2
Copy CRC C8ED1CD2
Copy OK

Track 4
Filename E:\rip\Millencolin – Same Old Tunes\04 – Millencolin – Domestic Subway.wav

Pre-gap length 0:00:02.00

Peak level 100.0 %
Track quality 100.0 %
Test CRC 9D19CABF
Copy CRC 9D19CABF
Copy OK

Track 5
Filename E:\rip\Millencolin – Same Old Tunes\05 – Millencolin – Fazil’s Friend.wav

Pre-gap length 0:00:02.00

Peak level 100.0 %
Track quality 100.0 %
Test CRC B340639B
Copy CRC B340639B
Copy OK

Track 6
Filename E:\rip\Millencolin – Same Old Tunes\06 – Millencolin – Leona.wav

Pre-gap length 0:00:02.00

Peak level 99.9 %
Track quality 100.0 %
Test CRC 69607CD4
Copy CRC 69607CD4
Copy OK

Track 7
Filename E:\rip\Millencolin – Same Old Tunes\07 – Millencolin – House Of Blend.wav

Pre-gap length 0:00:02.00

Peak level 100.0 %
Track quality 100.0 %
Test CRC 6B75BB18
Copy CRC 6B75BB18
Copy OK

Track 8
Filename E:\rip\Millencolin – Same Old Tunes\08 – Millencolin – Da Strike.wav

Pre-gap length 0:00:02.00

Peak level 99.9 %
Track quality 100.0 %
Test CRC ADB3926F
Copy CRC ADB3926F
Copy OK

Track 9
Filename E:\rip\Millencolin – Same Old Tunes\09 – Millencolin – Mystic Reptile.wav

Pre-gap length 0:00:02.00

Peak level 100.0 %
Track quality 100.0 %
Test CRC CA943878
Copy CRC CA943878
Copy OK

Track 10
Filename E:\rip\Millencolin – Same Old Tunes\10 – Millencolin – Dance Craze.wav

Pre-gap length 0:00:02.00

Peak level 100.0 %
Track quality 100.0 %
Test CRC 776BAA4E
Copy CRC 776BAA4E
Copy OK

Track 11
Filename E:\rip\Millencolin – Same Old Tunes\11 – Millencolin – The Einstein Crew.wav

Pre-gap length 0:00:02.00

Peak level 100.0 %
Track quality 100.0 %
Test CRC DC4FD664
Copy CRC DC4FD664
Copy OK

Track 12
Filename E:\rip\Millencolin – Same Old Tunes\12 – Millencolin – Take It Or Leave It.wav

Pre-gap length 0:00:02.00

Peak level 100.0 %
Track quality 100.0 %
Test CRC 142ACF6A
Copy CRC 142ACF6A
Copy OK

No errors occured

End of status report

REM GENRE Punk
REM DATE 1994
REM DISCID 8D075A0C
REM COMMENT “ExactAudioCopy v0.95b3”
PERFORMER “Millencolin”
TITLE “Same Old Tunes”
FILE “01 – Millencolin – Mr. Clean.wav” WAVE
TRACK 01 AUDIO
TITLE “Mr. Clean”
PERFORMER “Millencolin”
INDEX 01 00:00:00
TRACK 02 AUDIO
TITLE “Chiquita Chaser”
PERFORMER “Millencolin”
INDEX 00 02:39:45
FILE “02 – Millencolin – Chiquita Chaser.wav” WAVE
INDEX 01 00:00:00
TRACK 03 AUDIO
TITLE “Disney Time”
PERFORMER “Millencolin”
INDEX 00 02:38:05
FILE “03 – Millencolin – Disney Time.wav” WAVE
INDEX 01 00:00:00
TRACK 04 AUDIO
TITLE “Domestic Subway”
PERFORMER “Millencolin”
INDEX 00 03:38:73
FILE “04 – Millencolin – Domestic Subway.wav” WAVE
INDEX 01 00:00:00
TRACK 05 AUDIO
TITLE “Fazil’s Friend”
PERFORMER “Millencolin”
INDEX 00 01:36:32
FILE “05 – Millencolin – Fazil’s Friend.wav” WAVE
INDEX 01 00:00:00
TRACK 06 AUDIO
TITLE “Leona”
PERFORMER “Millencolin”
INDEX 00 01:50:55
FILE “06 – Millencolin – Leona.wav” WAVE
INDEX 01 00:00:00
TRACK 07 AUDIO
TITLE “House Of Blend”
PERFORMER “Millencolin”
INDEX 00 02:19:53
FILE “07 – Millencolin – House Of Blend.wav” WAVE
INDEX 01 00:00:00
TRACK 08 AUDIO
TITLE “Da Strike”
PERFORMER “Millencolin”
INDEX 00 02:54:45
FILE “08 – Millencolin – Da Strike.wav” WAVE
INDEX 01 00:00:00
TRACK 09 AUDIO
TITLE “Mystic Reptile”
PERFORMER “Millencolin”
INDEX 00 02:59:20
FILE “09 – Millencolin – Mystic Reptile.wav” WAVE
INDEX 01 00:00:00
TRACK 10 AUDIO
TITLE “Dance Craze”
PERFORMER “Millencolin”
INDEX 00 02:43:42
FILE “10 – Millencolin – Dance Craze.wav” WAVE
INDEX 01 00:00:00
TRACK 11 AUDIO
TITLE “The Einstein Crew”
PERFORMER “Millencolin”
INDEX 00 01:59:28
FILE “11 – Millencolin – The Einstein Crew.wav” WAVE
INDEX 01 00:00:00
TRACK 12 AUDIO
TITLE “Take It Or Leave It”
PERFORMER “Millencolin”
INDEX 00 02:56:30
FILE “12 – Millencolin – Take It Or Leave It.wav” WAVE
INDEX 01 00:00:00

Leave a Reply

Your email address will not be published. Required fields are marked *

This site uses Akismet to reduce spam. Learn how your comment data is processed.