Millencolin – Pennybridge Pioneers




Artist: Millencolin
Year: 2000
Genre: Punk
Notes: Discogs
Add. Notes:
Cover incl.: Yes
Encoder: FLAC
Bitrate: ~1100 kBit/s (44.1 kHz/16 Bit/s)
Log & Cue incl.: Yes
Size: 286,62 MB
Password: “slam” (without ” “)


All Downloads/Hosters are compatible

Download 1
Turbobit.net
Rapidgator.net
UploadEver.com
KatFile.com
UsersDrive.com
Download 2
Turbobit.net
Rapidgator.net
UploadEver.com
KatFile.com
UsersDrive.com
Download 3
Turbobit.net
Rapidgator.net
UploadEver.com
KatFile.com
UsersDrive.com

Tracklist:

1 - No Cigar - 2:43
2 - Fox - 2:02
3 - Material Boy - 2:23
4 - Duckpond - 2:50
5 - Right About Now - 1:48
6 - Penguins & Polarbears - 2:53
7 - Hellman - 2:40
8 - Devil Me - 2:40
9 - Stop To Think - 2:12
10 - The Mayfly - 3:05
11 - Highway Donkey - 2:28
12 - A-Ten - 3:00
13 - Pepper - 1:48
14 - The Ballad - 4:50

EAC-Log, CUE-Sheed & NFO:

Click to open spoiler
EAC extraction logfile from 1. October 2006, 15:06 for CD
Millencolin / Pennybridge Pioneers

Used drive : _NEC DVD_RW ND-4550A Adapter: 0 ID: 0
Read mode : Secure with NO C2, accurate stream, disable cache
Read offset correction : 48
Overread into Lead-In and Lead-Out : No

Used output format : C:\Programmi\Exact Audio Copy\flac.exe (User Defined Encoder)
192 kBit/s
Additional command line options : -V -8 -T “artist=%a” -T “title=%t” -T “album=%g” -T “date=%y” -T “tracknumber=%n” -T “genre=%m” %s

Other options :
Fill up missing offset samples with silence : Yes
Delete leading and trailing silent blocks : No
Installed external ASPI interface

Track 1
Filename C:\Millencolin – Pennybridge Pioneers\01 – Millencolin – No Cigar.wav

Pre-gap length 0:00:02.00

Peak level 99.2 %
Track quality 100.0 %
Test CRC 52BC343C
Copy CRC 52BC343C
Copy OK

Track 2
Filename C:\Millencolin – Pennybridge Pioneers\02 – Millencolin – Fox.wav

Peak level 99.2 %
Track quality 100.0 %
Test CRC E3316CDC
Copy CRC E3316CDC
Copy OK

Track 3
Filename C:\Millencolin – Pennybridge Pioneers\03 – Millencolin – Material Boy.wav

Pre-gap length 0:00:00.04

Peak level 99.2 %
Track quality 100.0 %
Test CRC 6C5FC74B
Copy CRC 6C5FC74B
Copy OK

Track 4
Filename C:\Millencolin – Pennybridge Pioneers\04 – Millencolin – Duckpond.wav

Pre-gap length 0:00:01.04

Peak level 99.2 %
Track quality 100.0 %
Test CRC 95468F11
Copy CRC 95468F11
Copy OK

Track 5
Filename C:\Millencolin – Pennybridge Pioneers\05 – Millencolin – Right About Now.wav

Pre-gap length 0:00:00.26

Peak level 100.0 %
Track quality 100.0 %
Test CRC 6DFEAEEA
Copy CRC 6DFEAEEA
Copy OK

Track 6
Filename C:\Millencolin – Pennybridge Pioneers\06 – Millencolin – Penguins And Polarbears.wav

Pre-gap length 0:00:01.07

Peak level 99.2 %
Track quality 100.0 %
Test CRC 11BC358F
Copy CRC 11BC358F
Copy OK

Track 7
Filename C:\Millencolin – Pennybridge Pioneers\07 – Millencolin – Hellman.wav

Peak level 99.2 %
Track quality 100.0 %
Test CRC CE0D34AB
Copy CRC CE0D34AB
Copy OK

Track 8
Filename C:\Millencolin – Pennybridge Pioneers\08 – Millencolin – Devil Me.wav

Pre-gap length 0:00:01.19

Peak level 99.2 %
Track quality 100.0 %
Test CRC 67BD9CBD
Copy CRC 67BD9CBD
Copy OK

Track 9
Filename C:\Millencolin – Pennybridge Pioneers\09 – Millencolin – Stop To Think.wav

Pre-gap length 0:00:02.00

Peak level 99.2 %
Track quality 100.0 %
Test CRC 280D2324
Copy CRC 280D2324
Copy OK

Track 10
Filename C:\Millencolin – Pennybridge Pioneers\10 – Millencolin – The Mayfly.wav

Pre-gap length 0:00:01.44

Peak level 99.2 %
Track quality 100.0 %
Test CRC 33598BA8
Copy CRC 33598BA8
Copy OK

Track 11
Filename C:\Millencolin – Pennybridge Pioneers\11 – Millencolin – Highway Donkey.wav

Pre-gap length 0:00:00.67

Peak level 99.2 %
Track quality 100.0 %
Test CRC 273D1DCE
Copy CRC 273D1DCE
Copy OK

Track 12
Filename C:\Millencolin – Pennybridge Pioneers\12 – Millencolin – A-Ten.wav

Pre-gap length 0:00:01.28

Peak level 99.2 %
Track quality 100.0 %
Test CRC 7E64A654
Copy CRC 7E64A654
Copy OK

Track 13
Filename C:\Millencolin – Pennybridge Pioneers\13 – Millencolin – Pepper.wav

Pre-gap length 0:00:00.31

Peak level 99.2 %
Track quality 100.0 %
Test CRC F286229A
Copy CRC F286229A
Copy OK

Track 14
Filename C:\Millencolin – Pennybridge Pioneers\14 – Millencolin – The Ballad.wav

Pre-gap length 0:00:03.24

Peak level 99.2 %
Track quality 100.0 %
Test CRC 8984A502
Copy CRC 8984A502
Copy OK

No errors occured

End of status report

REM GENRE Punk
REM DATE 1999
REM DISCID A708C80E
REM COMMENT “ExactAudioCopy v0.95b3”
PERFORMER “Millencolin”
TITLE “Pennybridge Pioneers”
FILE “01 – Millencolin – No Cigar.wav” WAVE
TRACK 01 AUDIO
TITLE “No Cigar”
PERFORMER “Millencolin”
INDEX 01 00:00:00
FILE “02 – Millencolin – Fox.wav” WAVE
TRACK 02 AUDIO
TITLE “Fox”
PERFORMER “Millencolin”
INDEX 01 00:00:00
TRACK 03 AUDIO
TITLE “Material Boy”
PERFORMER “Millencolin”
INDEX 00 02:02:54
FILE “03 – Millencolin – Material Boy.wav” WAVE
INDEX 01 00:00:00
TRACK 04 AUDIO
TITLE “Duckpond”
PERFORMER “Millencolin”
INDEX 00 02:22:24
FILE “04 – Millencolin – Duckpond.wav” WAVE
INDEX 01 00:00:00
TRACK 05 AUDIO
TITLE “Right About Now”
PERFORMER “Millencolin”
INDEX 00 02:49:55
FILE “05 – Millencolin – Right About Now.wav” WAVE
INDEX 01 00:00:00
TRACK 06 AUDIO
TITLE “Penguins And Polarbears”
PERFORMER “Millencolin”
INDEX 00 01:47:03
FILE “06 – Millencolin – Penguins And Polarbears.wav” WAVE
INDEX 01 00:00:00
FILE “07 – Millencolin – Hellman.wav” WAVE
TRACK 07 AUDIO
TITLE “Hellman”
PERFORMER “Millencolin”
INDEX 01 00:00:00
TRACK 08 AUDIO
TITLE “Devil Me”
PERFORMER “Millencolin”
INDEX 00 02:39:43
FILE “08 – Millencolin – Devil Me.wav” WAVE
INDEX 01 00:00:00
TRACK 09 AUDIO
TITLE “Stop To Think”
PERFORMER “Millencolin”
INDEX 00 02:38:51
FILE “09 – Millencolin – Stop To Think.wav” WAVE
INDEX 01 00:00:00
TRACK 10 AUDIO
TITLE “The Mayfly”
PERFORMER “Millencolin”
INDEX 00 02:11:00
FILE “10 – Millencolin – The Mayfly.wav” WAVE
INDEX 01 00:00:00
TRACK 11 AUDIO
TITLE “Highway Donkey”
PERFORMER “Millencolin”
INDEX 00 03:04:22
FILE “11 – Millencolin – Highway Donkey.wav” WAVE
INDEX 01 00:00:00
TRACK 12 AUDIO
TITLE “A-Ten”
PERFORMER “Millencolin”
INDEX 00 02:27:41
FILE “12 – Millencolin – A-Ten.wav” WAVE
INDEX 01 00:00:00
TRACK 13 AUDIO
TITLE “Pepper”
PERFORMER “Millencolin”
INDEX 00 03:00:19
FILE “13 – Millencolin – Pepper.wav” WAVE
INDEX 01 00:00:00
TRACK 14 AUDIO
TITLE “The Ballad”
PERFORMER “Millencolin”
INDEX 00 01:45:06
FILE “14 – Millencolin – The Ballad.wav” WAVE
INDEX 01 00:00:00


Leave a Reply

Your email address will not be published. Required fields are marked *

This site uses Akismet to reduce spam. Learn how your comment data is processed.