Millencolin – Life On A Plate




Artist: Millencolin
Year: 1995
Genre: Punk
Notes: Discogs
Add. Notes:
Cover incl.: Yes
Encoder: FLAC
Bitrate: ~1000 kBit/s (44.1 kHz/16 Bit/s)
Log & Cue incl.: Yes
Size: 243,99 MB
Password: “slam” (without ” “)


All Downloads/Hosters are compatible

Download 1
Turbobit.net
Rapidgator.net
KatFile.com
UsersDrive.com
CloudShare.to
Download 2
Turbobit.net
Rapidgator.net
KatFile.com
UsersDrive.com
CloudShare.to
Download 3
Turbobit.net
Rapidgator.net
KatFile.com
UsersDrive.com
CloudShare.to

Tracklist:

1 - Bullion - 2:00
2 - Olympic - 2:56
3 - Move Your Car - 2:06
4 - Killercrush - 2:27
5 - Friends 'Til The End - 2:31
6 - The Story Of My Life - 2:33
7 - Jellygoose - 2:34
8 - Replay - 2:16
9 - Vulcan Ears - 2:06
10 - Dr. Jackal & Mr. Hide - 2:25
11 - Softworld - 2:56
12 - Buzzer - 2:23
13 - Ace Frehley - 0:05
14 - Airhead - 2:54

EAC-Log, CUE-Sheed & NFO:

Click to open spoiler
EAC extraction logfile from 27. December 2006, 13:15 for CD
Millencolin / Life on a Plate

Used drive : _NEC DVD+-RW ND-6500A Adapter: 1 ID: 0
Read mode : Secure with NO C2, accurate stream, disable cache
Read offset correction : 48
Overread into Lead-In and Lead-Out : No

Used output format : C:\Program Files\FLAC\flac.exe (User Defined Encoder)
192 kBit/s
Additional command line options : -V -8 -T “artist=%a” -T “title=%t” -T “album=%g” -T “date=%y” -T “tracknumber=%n” -T “genre=%m” %s

Other options :
Fill up missing offset samples with silence : Yes
Delete leading and trailing silent blocks : No
Native Win32 interface for Win NT & 2000

Track 1
Filename C:\Documents and Settings\Danno\Desktop\Torrents\Millencolin – Life On A Plate\01 – Bullion.wav

Pre-gap length 0:00:02.00

Peak level 89.3 %
Track quality 99.9 %
Test CRC 7533402A
Copy CRC 7533402A
Copy OK

Track 2
Filename C:\Documents and Settings\Danno\Desktop\Torrents\Millencolin – Life On A Plate\02 – Olympic.wav

Peak level 89.3 %
Track quality 100.0 %
Test CRC 46B27A68
Copy CRC 46B27A68
Copy OK

Track 3
Filename C:\Documents and Settings\Danno\Desktop\Torrents\Millencolin – Life On A Plate\03 – Move Your Car.wav

Peak level 89.3 %
Track quality 100.0 %
Test CRC 84A6F816
Copy CRC 84A6F816
Copy OK

Track 4
Filename C:\Documents and Settings\Danno\Desktop\Torrents\Millencolin – Life On A Plate\04 – Killercrush.wav

Peak level 89.3 %
Track quality 100.0 %
Test CRC 5FC39C37
Copy CRC 5FC39C37
Copy OK

Track 5
Filename C:\Documents and Settings\Danno\Desktop\Torrents\Millencolin – Life On A Plate\05 – Friends ‘Till The End.wav

Peak level 89.3 %
Track quality 100.0 %
Test CRC A42B962C
Copy CRC A42B962C
Copy OK

Track 6
Filename C:\Documents and Settings\Danno\Desktop\Torrents\Millencolin – Life On A Plate\06 – The Story Of My Life.wav

Peak level 89.3 %
Track quality 100.0 %
Test CRC E8053402
Copy CRC E8053402
Copy OK

Track 7
Filename C:\Documents and Settings\Danno\Desktop\Torrents\Millencolin – Life On A Plate\07 – Jellygoose.wav

Peak level 89.3 %
Track quality 99.9 %
Test CRC 23BDE014
Copy CRC 23BDE014
Copy OK

Track 8
Filename C:\Documents and Settings\Danno\Desktop\Torrents\Millencolin – Life On A Plate\08 – Replay.wav

Peak level 89.3 %
Track quality 99.9 %
Test CRC BFEC6813
Copy CRC BFEC6813
Copy OK

Track 9
Filename C:\Documents and Settings\Danno\Desktop\Torrents\Millencolin – Life On A Plate\09 – Vulcan Ears.wav

Peak level 89.3 %
Track quality 100.0 %
Test CRC E99E0411
Copy CRC E99E0411
Copy OK

Track 10
Filename C:\Documents and Settings\Danno\Desktop\Torrents\Millencolin – Life On A Plate\10 – Dr. Jackal & Mr. Hide.wav

Pre-gap length 0:00:00.56

Peak level 89.3 %
Track quality 100.0 %
Test CRC 7E90E8CF
Copy CRC 7E90E8CF
Copy OK

Track 11
Filename C:\Documents and Settings\Danno\Desktop\Torrents\Millencolin – Life On A Plate\11 – Softworld.wav

Pre-gap length 0:00:00.50

Peak level 89.3 %
Track quality 100.0 %
Test CRC A6993D67
Copy CRC A6993D67
Copy OK

Track 12
Filename C:\Documents and Settings\Danno\Desktop\Torrents\Millencolin – Life On A Plate\12 – Buzzer.wav

Peak level 89.3 %
Track quality 100.0 %
Test CRC EE2962DD
Copy CRC EE2962DD
Copy OK

Track 13
Filename C:\Documents and Settings\Danno\Desktop\Torrents\Millencolin – Life On A Plate\13 – Ace Frehley.wav

Peak level 89.1 %
Track quality 100.0 %
Test CRC 82CEE4CE
Copy CRC 82CEE4CE
Copy OK

Track 14
Filename C:\Documents and Settings\Danno\Desktop\Torrents\Millencolin – Life On A Plate\14 – Airhead.wav

Peak level 90.7 %
Track quality 100.0 %
Test CRC AF1EC041
Copy CRC AF1EC041
Copy OK

No errors occured

End of status report

REM GENRE “Punk Rock”
REM DATE 1996
REM DISCID BA07930E
REM COMMENT “ExactAudioCopy v0.95b4”
PERFORMER “Millencolin”
TITLE “Life on a Plate”
FILE “01 – Bullion.wav” WAVE
TRACK 01 AUDIO
TITLE “Bullion”
PERFORMER “Millencolin”
INDEX 01 00:00:00
FILE “02 – Olympic.wav” WAVE
TRACK 02 AUDIO
TITLE “Olympic”
PERFORMER “Millencolin”
INDEX 01 00:00:00
FILE “03 – Move Your Car.wav” WAVE
TRACK 03 AUDIO
TITLE “Move Your Car”
PERFORMER “Millencolin”
INDEX 01 00:00:00
FILE “04 – Killercrush.wav” WAVE
TRACK 04 AUDIO
TITLE “Killercrush”
PERFORMER “Millencolin”
INDEX 01 00:00:00
FILE “05 – Friends ‘Till The End.wav” WAVE
TRACK 05 AUDIO
TITLE “Friends ‘Till The End”
PERFORMER “Millencolin”
INDEX 01 00:00:00
FILE “06 – The Story Of My Life.wav” WAVE
TRACK 06 AUDIO
TITLE “The Story Of My Life”
PERFORMER “Millencolin”
INDEX 01 00:00:00
FILE “07 – Jellygoose.wav” WAVE
TRACK 07 AUDIO
TITLE “Jellygoose”
PERFORMER “Millencolin”
INDEX 01 00:00:00
FILE “08 – Replay.wav” WAVE
TRACK 08 AUDIO
TITLE “Replay”
PERFORMER “Millencolin”
INDEX 01 00:00:00
FILE “09 – Vulcan Ears.wav” WAVE
TRACK 09 AUDIO
TITLE “Vulcan Ears”
PERFORMER “Millencolin”
INDEX 01 00:00:00
TRACK 10 AUDIO
TITLE “Dr. Jackal & Mr. Hide”
PERFORMER “Millencolin”
INDEX 00 02:06:25
FILE “10 – Dr. Jackal & Mr. Hide.wav” WAVE
INDEX 01 00:00:00
TRACK 11 AUDIO
TITLE “Softworld”
PERFORMER “Millencolin”
INDEX 00 02:24:35
FILE “11 – Softworld.wav” WAVE
INDEX 01 00:00:00
FILE “12 – Buzzer.wav” WAVE
TRACK 12 AUDIO
TITLE “Buzzer”
PERFORMER “Millencolin”
INDEX 01 00:00:00
FILE “13 – Ace Frehley.wav” WAVE
TRACK 13 AUDIO
TITLE “Ace Frehley”
PERFORMER “Millencolin”
INDEX 01 00:00:00
FILE “14 – Airhead.wav” WAVE
TRACK 14 AUDIO
TITLE “Airhead”
PERFORMER “Millencolin”
INDEX 01 00:00:00

Leave a Reply

Your email address will not be published. Required fields are marked *

This site uses Akismet to reduce spam. Learn how your comment data is processed.