Millencolin – Kingwood




Artist: Millencolin
Year: 2005
Genre: Punk
Notes: Discogs
Add. Notes:
Cover incl.: Yes
Encoder: FLAC
Bitrate: ~1100 kBit/s (44.1 kHz/16 Bit/s)
Log & Cue incl.: Yes
Size: 268,88 MB
Password: “slam” (without ” “)


All Downloads/Hosters are compatible

Download 1
Turbobit.net
Rapidgator.net
KatFile.com
UsersDrive.com
CloudShare.to
Download 2
Turbobit.net
Rapidgator.net
KatFile.com
UsersDrive.com
CloudShare.to
Download 3
Turbobit.net
Rapidgator.net
KatFile.com
UsersDrive.com
CloudShare.to

Tracklist:

1 - Farewell My Hell - 2:51
2 - Birdie - 2:31
3 - Cash Or Clash - 2:39
4 - Shut You Out - 3:39
5 - Biftek Supernova - 2:17
6 - My Name Is Golden - 3:08
7 - Ray - 2:52
8 - Novo - 2:58
9 - Simple Twist Of Hate - 1:29
10 - Stalemate - 3:18
11 - Mooseman's Jukebox - 2:12
12 - Hard Times - 4:07

EAC-Log, CUE-Sheed & NFO:

Click to open spoiler
EAC extraction logfile from 17. August 2007, 19:22 for CD
Millencolin / Kingwood

Used drive : PHILIPS DVDRW416 Adapter: 2 ID: 1
Read mode : Secure with NO C2, accurate stream, NO disable cache
Read offset correction : 0
Overread into Lead-In and Lead-Out : No

Used output format : H:\Program Files\Exact Audio Copy\flac.exe (User Defined Encoder)
128 kBit/s
Additional command line options : -V -5 -T “artist=%a” -T “title=%t” -T “album=%g” -T “date=%y” -T “tracknumber=%n” -T “genre=%m” %s

Other options :
Fill up missing offset samples with silence : Yes
Delete leading and trailing silent blocks : No
Native Win32 interface for Win NT & 2000

Track 1
Filename E:\Ripped\01 – Millencolin – Farewell My Hell.wav

Pre-gap length 0:00:02.00

Peak level 98.8 %
Track quality 100.0 %
Test CRC 4A3EF5DB
Copy CRC 4A3EF5DB
Copy OK

Track 2
Filename E:\Ripped\02 – Millencolin – Birdie.wav

Pre-gap length 0:00:02.20

Peak level 98.8 %
Track quality 99.9 %
Test CRC 15E635CA
Copy CRC 15E635CA
Copy OK

Track 3
Filename E:\Ripped\03 – Millencolin – Cash Or Clash.wav

Pre-gap length 0:00:02.96

Peak level 98.8 %
Track quality 100.0 %
Test CRC AF5B6137
Copy CRC AF5B6137
Copy OK

Track 4
Filename E:\Ripped\04 – Millencolin – Shut You Out.wav

Pre-gap length 0:00:03.21

Peak level 98.8 %
Track quality 99.9 %
Test CRC F38CE287
Copy CRC F38CE287
Copy OK

Track 5
Filename E:\Ripped\05 – Millencolin – Biftek Supernova.wav

Pre-gap length 0:00:03.30

Peak level 98.8 %
Track quality 100.0 %
Test CRC C2E42119
Copy CRC C2E42119
Copy OK

Track 6
Filename E:\Ripped\06 – Millencolin – My Name Is Golden.wav

Pre-gap length 0:00:02.50

Peak level 98.8 %
Track quality 100.0 %
Test CRC 16ED0E95
Copy CRC 16ED0E95
Copy OK

Track 7
Filename E:\Ripped\07 – Millencolin – Ray.wav

Pre-gap length 0:00:02.58

Peak level 98.8 %
Track quality 100.0 %
Test CRC 1570BC76
Copy CRC 1570BC76
Copy OK

Track 8
Filename E:\Ripped\08 – Millencolin – Novo.wav

Pre-gap length 0:00:02.20

Peak level 98.8 %
Track quality 100.0 %
Test CRC FD84B40E
Copy CRC FD84B40E
Copy OK

Track 9
Filename E:\Ripped\09 – Millencolin – Simple Twist Of Hate.wav

Pre-gap length 0:00:02.34

Peak level 98.8 %
Track quality 100.0 %
Test CRC C55F039A
Copy CRC C55F039A
Copy OK

Track 10
Filename E:\Ripped\10 – Millencolin – Stalemate.wav

Pre-gap length 0:00:02.46

Peak level 98.8 %
Track quality 100.0 %
Test CRC 682ECC14
Copy CRC 682ECC14
Copy OK

Track 11
Filename E:\Ripped\11 – Millencolin – Mooseman’s Jukebox.wav

Pre-gap length 0:00:02.81

Peak level 98.8 %
Track quality 100.0 %
Test CRC DF6C14DB
Copy CRC DF6C14DB
Copy OK

Track 12
Filename E:\Ripped\12 – Millencolin – Hard Times.wav

Pre-gap length 0:00:02.33

Peak level 98.8 %
Track quality 100.0 %
Test CRC 146DBE54
Copy CRC 146DBE54
Copy OK

No errors occured

End of status report

REM GENRE Punk
REM DATE 2005
REM DISCID 9911580D
REM COMMENT “ExactAudioCopy v0.95b4”
PERFORMER “Millencolin”
TITLE “Kingwood”
FILE “01 – Millencolin – Farewell My Hell.wav” WAVE
TRACK 01 AUDIO
TITLE “Farewell My Hell”
PERFORMER “Millencolin”
INDEX 01 00:00:00
TRACK 02 AUDIO
TITLE “Birdie”
PERFORMER “Millencolin”
FLAGS DCP
INDEX 00 02:49:70
FILE “02 – Millencolin – Birdie.wav” WAVE
INDEX 01 00:00:00
TRACK 03 AUDIO
TITLE “Cash Or Clash”
PERFORMER “Millencolin”
FLAGS DCP
INDEX 00 02:29:33
FILE “03 – Millencolin – Cash Or Clash.wav” WAVE
INDEX 01 00:00:00
TRACK 04 AUDIO
TITLE “Shut You Out”
PERFORMER “Millencolin”
FLAGS DCP
INDEX 00 02:37:26
FILE “04 – Millencolin – Shut You Out.wav” WAVE
INDEX 01 00:00:00
TRACK 05 AUDIO
TITLE “Biftek Supernova”
PERFORMER “Millencolin”
FLAGS DCP
INDEX 00 03:36:12
FILE “05 – Millencolin – Biftek Supernova.wav” WAVE
INDEX 01 00:00:00
TRACK 06 AUDIO
TITLE “My Name Is Golden”
PERFORMER “Millencolin”
FLAGS DCP
INDEX 00 02:15:40
FILE “06 – Millencolin – My Name Is Golden.wav” WAVE
INDEX 01 00:00:00
TRACK 07 AUDIO
TITLE “Ray”
PERFORMER “Millencolin”
FLAGS DCP
INDEX 00 03:05:66
FILE “07 – Millencolin – Ray.wav” WAVE
INDEX 01 00:00:00
TRACK 08 AUDIO
TITLE “Novo”
PERFORMER “Millencolin”
FLAGS DCP
INDEX 00 02:49:72
FILE “08 – Millencolin – Novo.wav” WAVE
INDEX 01 00:00:00
TRACK 09 AUDIO
TITLE “Simple Twist Of Hate”
PERFORMER “Millencolin”
FLAGS DCP
INDEX 00 02:56:17
FILE “09 – Millencolin – Simple Twist Of Hate.wav” WAVE
INDEX 01 00:00:00
TRACK 10 AUDIO
TITLE “Stalemate”
PERFORMER “Millencolin”
FLAGS DCP
INDEX 00 01:27:17
FILE “10 – Millencolin – Stalemate.wav” WAVE
INDEX 01 00:00:00
TRACK 11 AUDIO
TITLE “Mooseman’s Jukebox”
PERFORMER “Millencolin”
FLAGS DCP
INDEX 00 03:15:29
FILE “11 – Millencolin – Mooseman’s Jukebox.wav” WAVE
INDEX 01 00:00:00
TRACK 12 AUDIO
TITLE “Hard Times”
PERFORMER “Millencolin”
FLAGS DCP
INDEX 00 02:10:00
FILE “12 – Millencolin – Hard Times.wav” WAVE
INDEX 01 00:00:00
TRACK 13 MODEx/2xxx
TITLE “Data Track”
PERFORMER “Millencolin”
INDEX 00 04:07:58

Leave a Reply

Your email address will not be published. Required fields are marked *

This site uses Akismet to reduce spam. Learn how your comment data is processed.