Millencolin – Home From Home




Artist: Millencolin
Year: 2002
Genre: Punk
Notes: Discogs
Add. Notes:
Cover incl.: No
Encoder: FLAC
Bitrate: ~1000 kBit/s (44.1 kHz/16 Bit/s)
Log & Cue incl.: Yes
Size: 286,45 MB
Password: “slam” (without ” “)


All Downloads/Hosters are compatible

Download 1
Turbobit.net
Rapidgator.net
UploadEver.com
KatFile.com
UsersDrive.com
Download 2
Turbobit.net
Rapidgator.net
UploadEver.com
KatFile.com
UsersDrive.com
Download 3
Turbobit.net
Rapidgator.net
UploadEver.com
KatFile.com
UsersDrive.com

Tracklist:

1 - Man Or Mouse - 3:04
2 - Fingers Crossed - 2:47
3 - Black Eye - 3:13
4 - Montego - 2:59
5 - Punk Rock Rebel - 3:06
6 - Kemp - 3:26
7 - Botanic Mistress - 2:11
8 - Happiness For Dogs - 3:25
9 - Battery Check - 3:20
10 - Fuel To The Flame - 1:54
11 - Afghan - 2:42
12 - Greener Grass - 2:50
13 - Home From Home - 2:13

EAC-Log, CUE-Sheed & NFO:

Click to open spoiler
EAC extraheringsloggfil från 16. Augusti 2007, 18:12 för CD
Millencolin / Home From Home

Använd enhet : HL-DT-STDVD+-RW GWA4164B Adapter: 1 ID: 0
Läsmetod : Säker med INGEN C2, accurate stream, bortkopplad cache
Läs-offset-korrigering : 12
Läs in i Lead-In och Lead-Out : Nej

Använt output format : C:\Program Files\Exact Audio Copy\flac.exe (Användardefinierad Kodare)
128 kBit/s
Ytterligare kommandoradsinställningar : -8 -A tukey(0.25) -A gauss(0.1875) -b 4096 -V -T “artist=%a” -T “title=%t” -T “album=%g” -T “date=%y” -T “tracknumber=%n” -T “genre=%m” %s –sector-align

Andra inställningar :
Fyll upp saknade offset-samplingar med tystnad : Ja
Radera inledande och eftersläpande tysta block : Nej
Installerat externt ASPI gränssnitt

Spår 1
Filnamn D:\- Rippat\Millencolin – Home From Home – 01 – Man Or Mouse.wav

Peak-nivå 98.8 %
Spårkvalité 99.9 %
Testar CRC EF7AD067
Kopiera CRC EF7AD067
Kopia OK

Spår 2
Filnamn D:\- Rippat\Millencolin – Home From Home – 02 – Fingers Crossed.wav

Peak-nivå 98.8 %
Spårkvalité 99.9 %
Testar CRC E175D5C1
Kopiera CRC E175D5C1
Kopia OK

Spår 3
Filnamn D:\- Rippat\Millencolin – Home From Home – 03 – Black Eye.wav

Peak-nivå 98.8 %
Spårkvalité 99.5 %
Testar CRC E27F9DFE
Kopiera CRC E27F9DFE
Kopia OK

Spår 4
Filnamn D:\- Rippat\Millencolin – Home From Home – 04 – Montego.wav

Peak-nivå 98.8 %
Spårkvalité 99.6 %
Testar CRC 99E42D6E
Kopiera CRC 99E42D6E
Kopia OK

Spår 5
Filnamn D:\- Rippat\Millencolin – Home From Home – 05 – Punk Rock Rebel.wav

Peak-nivå 98.8 %
Spårkvalité 100.0 %
Testar CRC 0B4535BB
Kopiera CRC 0B4535BB
Kopia OK

Spår 6
Filnamn D:\- Rippat\Millencolin – Home From Home – 06 – Kemp.wav

Peak-nivå 98.8 %
Spårkvalité 99.8 %
Testar CRC EE166C3A
Kopiera CRC 99C4C0DF
Kopia OK

Spår 7
Filnamn D:\- Rippat\Millencolin – Home From Home – 07 – Botanic Mistress.wav

Peak-nivå 98.8 %
Spårkvalité 99.5 %
Testar CRC F1FA85D8
Kopiera CRC 5BB89F71
Kopia OK

Spår 8
Filnamn D:\- Rippat\Millencolin – Home From Home – 08 – Happiness For Dogs.wav

Peak-nivå 98.8 %
Spårkvalité 99.7 %
Testar CRC 41FA6934
Kopiera CRC 41FA6934
Kopia OK

Spår 9
Filnamn D:\- Rippat\Millencolin – Home From Home – 09 – Battery Check.wav

Peak-nivå 98.8 %
Spårkvalité 99.8 %
Testar CRC C83C9975
Kopiera CRC C83C9975
Kopia OK

Spår 10
Filnamn D:\- Rippat\Millencolin – Home From Home – 10 – Fuel To The Flame.wav

Peak-nivå 98.8 %
Spårkvalité 99.9 %
Testar CRC 89E345A8
Kopiera CRC 89E345A8
Kopia OK

Spår 11
Filnamn D:\- Rippat\Millencolin – Home From Home – 11 – Afghan.wav

Peak-nivå 98.8 %
Spårkvalité 99.8 %
Testar CRC 458DF3B7
Kopiera CRC 458DF3B7
Kopia OK

Spår 12
Filnamn D:\- Rippat\Millencolin – Home From Home – 12 – Greener Grass.wav

Peak-nivå 98.8 %
Spårkvalité 99.0 %
Testar CRC BA75E281
Kopiera CRC BA75E281
Kopia OK

Spår 13
Filnamn D:\- Rippat\Millencolin – Home From Home – 13 – Home From Home.wav

Peak-nivå 98.8 %
Spårkvalité 100.0 %
Testar CRC DE5B3FBC
Kopiera CRC DE5B3FBC
Kopia OK

Inga fel uppstod

Slut på status rapport

REM GENRE “Punk Rock”
REM DATE 2002
REM DISCID B00AC90E
REM COMMENT “ExactAudioCopy v0.95b3”
PERFORMER “Millencolin”
TITLE “Home From Home”
FILE “Millencolin – Home From Home – 01 – Man Or Mouse.wav” WAVE
TRACK 01 AUDIO
TITLE “Man Or Mouse”
PERFORMER “Millencolin”
INDEX 01 00:00:00
FILE “Millencolin – Home From Home – 02 – Fingers Crossed.wav” WAVE
TRACK 02 AUDIO
TITLE “Fingers Crossed”
PERFORMER “Millencolin”
INDEX 01 00:00:00
FILE “Millencolin – Home From Home – 03 – Black Eye.wav” WAVE
TRACK 03 AUDIO
TITLE “Black Eye”
PERFORMER “Millencolin”
INDEX 01 00:00:00
FILE “Millencolin – Home From Home – 04 – Montego.wav” WAVE
TRACK 04 AUDIO
TITLE “Montego”
PERFORMER “Millencolin”
INDEX 01 00:00:00
FILE “Millencolin – Home From Home – 05 – Punk Rock Rebel.wav” WAVE
TRACK 05 AUDIO
TITLE “Punk Rock Rebel”
PERFORMER “Millencolin”
PREGAP 00:00:26
INDEX 01 00:00:00
FILE “Millencolin – Home From Home – 06 – Kemp.wav” WAVE
TRACK 06 AUDIO
TITLE “Kemp”
PERFORMER “Millencolin”
INDEX 01 00:00:00
FILE “Millencolin – Home From Home – 07 – Botanic Mistress.wav” WAVE
TRACK 07 AUDIO
TITLE “Botanic Mistress”
PERFORMER “Millencolin”
INDEX 01 00:00:00
FILE “Millencolin – Home From Home – 08 – Happiness For Dogs.wav” WAVE
TRACK 08 AUDIO
TITLE “Happiness For Dogs”
PERFORMER “Millencolin”
INDEX 01 00:00:00
FILE “Millencolin – Home From Home – 09 – Battery Check.wav” WAVE
TRACK 09 AUDIO
TITLE “Battery Check”
PERFORMER “Millencolin”
INDEX 01 00:00:00
FILE “Millencolin – Home From Home – 10 – Fuel To The Flame.wav” WAVE
TRACK 10 AUDIO
TITLE “Fuel To The Flame”
PERFORMER “Millencolin”
INDEX 01 00:00:00
FILE “Millencolin – Home From Home – 11 – Afghan.wav” WAVE
TRACK 11 AUDIO
TITLE “Afghan”
PERFORMER “Millencolin”
INDEX 01 00:00:00
FILE “Millencolin – Home From Home – 12 – Greener Grass.wav” WAVE
TRACK 12 AUDIO
TITLE “Greener Grass”
PERFORMER “Millencolin”
INDEX 01 00:00:00
FILE “Millencolin – Home From Home – 13 – Home From Home.wav” WAVE
TRACK 13 AUDIO
TITLE “Home From Home”
PERFORMER “Millencolin”
INDEX 01 00:00:00


Leave a Reply

Your email address will not be published. Required fields are marked *

This site uses Akismet to reduce spam. Learn how your comment data is processed.