Millencolin – For Monkeys




Artist: Millencolin
Year: 1997
Genre: Ska
Notes: Discogs
Add. Notes:
Cover incl.: Yes
Encoder: FLAC
Bitrate: ~1100 kBit/s (44.1 kHz/16 Bit/s)
Log & Cue incl.: Yes
Size: 237,66 MB
Password: “slam” (without ” “)


All Downloads/Hosters are compatible

Download 1
Turbobit.net
Rapidgator.net
UploadEver.com
KatFile.com
UsersDrive.com
Download 2
Turbobit.net
Rapidgator.net
UploadEver.com
KatFile.com
UsersDrive.com
Download 3
Turbobit.net
Rapidgator.net
UploadEver.com
KatFile.com
UsersDrive.com

Tracklist:

1 - Puzzle - 2:38
2 - Lozin' Must - 2:12
3 - Random I Am - 2:40
4 - Boring Planet - 2:07
5 - Monkey Boogie - 2:26
6 - Twenty Two - 2:55
7 - Black Gold - 2:30
8 - Trendy Winds - 2:45
9 - Otis - 2:51
10 - Light's Out - 2:30
11 - Entrance At Rudebrook - 2:14
12 - Lowlife - 2:39

EAC-Log, CUE-Sheed & NFO:

Click to open spoiler
EAC extraheringsloggfil från 16. Augusti 2007, 19:34 för CD
Millencolin / For Monkeys

Använd enhet : HL-DT-STDVD+-RW GWA4164B Adapter: 1 ID: 0
Läsmetod : Säker med INGEN C2, accurate stream, bortkopplad cache
Läs-offset-korrigering : 12
Läs in i Lead-In och Lead-Out : Nej

Använt output format : C:\Program Files\Exact Audio Copy\flac.exe (Användardefinierad Kodare)
128 kBit/s
Ytterligare kommandoradsinställningar : -8 -A tukey(0.25) -A gauss(0.1875) -b 4096 -V -T “artist=%a” -T “title=%t” -T “album=%g” -T “date=%y” -T “tracknumber=%n” -T “genre=%m” %s –sector-align

Andra inställningar :
Fyll upp saknade offset-samplingar med tystnad : Ja
Radera inledande och eftersläpande tysta block : Nej
Installerat externt ASPI gränssnitt

Spår 1
Filnamn D:\- Rippat\Millencolin – For Monkeys – 01 – Puzzle.wav

Peak-nivå 89.3 %
Spårkvalité 100.0 %
Testar CRC 087FE8AB
Kopiera CRC 087FE8AB
Kopia OK

Spår 2
Filnamn D:\- Rippat\Millencolin – For Monkeys – 02 – Lozin’ Must.wav

Peak-nivå 96.9 %
Spårkvalité 100.0 %
Testar CRC 671B435D
Kopiera CRC 671B435D
Kopia OK

Spår 3
Filnamn D:\- Rippat\Millencolin – For Monkeys – 03 – Random I Am.wav

Peak-nivå 97.0 %
Spårkvalité 100.0 %
Testar CRC D2C6B51A
Kopiera CRC D2C6B51A
Kopia OK

Spår 4
Filnamn D:\- Rippat\Millencolin – For Monkeys – 04 – Boring Planet.wav

Peak-nivå 96.9 %
Spårkvalité 100.0 %
Testar CRC A7E57371
Kopiera CRC A7E57371
Kopia OK

Spår 5
Filnamn D:\- Rippat\Millencolin – For Monkeys – 05 – Monkey Boogie.wav

Peak-nivå 96.9 %
Spårkvalité 99.9 %
Testar CRC 272FBE99
Kopiera CRC 272FBE99
Kopia OK

Spår 6
Filnamn D:\- Rippat\Millencolin – For Monkeys – 06 – Twenty Two.wav

Peak-nivå 96.9 %
Spårkvalité 99.9 %
Testar CRC C028A5BD
Kopiera CRC C028A5BD
Kopia OK

Spår 7
Filnamn D:\- Rippat\Millencolin – For Monkeys – 07 – Black Gold.wav

Peak-nivå 96.9 %
Spårkvalité 100.0 %
Testar CRC 03C3A73C
Kopiera CRC 03C3A73C
Kopia OK

Spår 8
Filnamn D:\- Rippat\Millencolin – For Monkeys – 08 – Trendy Winds.wav

Peak-nivå 96.9 %
Spårkvalité 100.0 %
Testar CRC C6A1AB99
Kopiera CRC C6A1AB99
Kopia OK

Spår 9
Filnamn D:\- Rippat\Millencolin – For Monkeys – 09 – Otis.wav

Peak-nivå 89.3 %
Spårkvalité 100.0 %
Testar CRC 16222AE3
Kopiera CRC 16222AE3
Kopia OK

Spår 10
Filnamn D:\- Rippat\Millencolin – For Monkeys – 10 – Lights Out.wav

Peak-nivå 89.3 %
Spårkvalité 99.9 %
Testar CRC 2AE5BA06
Kopiera CRC 2AE5BA06
Kopia OK

Spår 11
Filnamn D:\- Rippat\Millencolin – For Monkeys – 11 – Entrance At RudeBrook.wav

Peak-nivå 89.3 %
Spårkvalité 100.0 %
Testar CRC BC828250
Kopiera CRC BC828250
Kopia OK

Spår 12
Filnamn D:\- Rippat\Millencolin – For Monkeys – 12 – Lowlife.wav

Peak-nivå 89.3 %
Spårkvalité 100.0 %
Testar CRC 3A0C71B8
Kopiera CRC 3A0C71B8
Kopia OK

Inga fel uppstod

Slut på status rapport

REM GENRE Punk
REM DATE 1997
REM DISCID 8707280C
REM COMMENT “ExactAudioCopy v0.95b3”
PERFORMER “Millencolin”
TITLE “For Monkeys”
FILE “Millencolin – For Monkeys – 01 – Puzzle.wav” WAVE
TRACK 01 AUDIO
TITLE “Puzzle”
PERFORMER “Millencolin”
INDEX 01 00:00:00
FILE “Millencolin – For Monkeys – 02 – Lozin’ Must.wav” WAVE
TRACK 02 AUDIO
TITLE “Lozin’ Must”
PERFORMER “Millencolin”
INDEX 01 00:00:00
FILE “Millencolin – For Monkeys – 03 – Random I Am.wav” WAVE
TRACK 03 AUDIO
TITLE “Random I Am”
PERFORMER “Millencolin”
INDEX 01 00:00:00
FILE “Millencolin – For Monkeys – 04 – Boring Planet.wav” WAVE
TRACK 04 AUDIO
TITLE “Boring Planet”
PERFORMER “Millencolin”
INDEX 01 00:00:00
FILE “Millencolin – For Monkeys – 05 – Monkey Boogie.wav” WAVE
TRACK 05 AUDIO
TITLE “Monkey Boogie”
PERFORMER “Millencolin”
INDEX 01 00:00:00
FILE “Millencolin – For Monkeys – 06 – Twenty Two.wav” WAVE
TRACK 06 AUDIO
TITLE “Twenty Two”
PERFORMER “Millencolin”
INDEX 01 00:00:00
FILE “Millencolin – For Monkeys – 07 – Black Gold.wav” WAVE
TRACK 07 AUDIO
TITLE “Black Gold”
PERFORMER “Millencolin”
INDEX 01 00:00:00
FILE “Millencolin – For Monkeys – 08 – Trendy Winds.wav” WAVE
TRACK 08 AUDIO
TITLE “Trendy Winds”
PERFORMER “Millencolin”
INDEX 01 00:00:00
FILE “Millencolin – For Monkeys – 09 – Otis.wav” WAVE
TRACK 09 AUDIO
TITLE “Otis”
PERFORMER “Millencolin”
INDEX 01 00:00:00
FILE “Millencolin – For Monkeys – 10 – Lights Out.wav” WAVE
TRACK 10 AUDIO
TITLE “Lights Out”
PERFORMER “Millencolin”
INDEX 01 00:00:00
FILE “Millencolin – For Monkeys – 11 – Entrance At RudeBrook.wav” WAVE
TRACK 11 AUDIO
TITLE “Entrance At RudeBrook”
PERFORMER “Millencolin”
INDEX 01 00:00:00
FILE “Millencolin – For Monkeys – 12 – Lowlife.wav” WAVE
TRACK 12 AUDIO
TITLE “Lowlife”
PERFORMER “Millencolin”
INDEX 01 00:00:00

Leave a Reply

Your email address will not be published. Required fields are marked *

This site uses Akismet to reduce spam. Learn how your comment data is processed.