Metallica – Through The Never (Music From The Motion Picture) (Japanese Edition)




Artist: Metallica
Year: 2013
Genre: Metal
Notes: Discogs
Add. Notes: Japanese Edition
Cover incl.: Yes
Encoder: FLAC
Bitrate: ~1000 kBit/s (44.1 kHz/16 Bit/s)
Log & Cue incl.: Yes
Size: 748,87 MB
Password: “slam” (without ” “)


All Downloads/Hosters are compatible

Download 1
Turbobit.net
Rapidgator.net
UploadEver.com
JustUpload.io
UsersDrive.com
Download 2
Turbobit.net
Rapidgator.net
UploadEver.com
JustUpload.io
UsersDrive.com
Download 3
Turbobit.net
Rapidgator.net
UploadEver.com
JustUpload.io
UsersDrive.com

Tracklist:

1-1 - The Ecstasy Of Gold - 2:01
1-2 - Creeping Death - 6:19
1-3 - For Whom The Bell Tolls - 4:40
1-4 - Fuel - 3:57
1-5 - Ride The Lightning - 6:54
1-6 - One - 8:25
1-7 - The Memory Remains - 5:43
1-8 - Wherever I May Roam - 6:18
2-1 - Cyanide - 7:01
2-2 - ...And Justice For All - 9:18
2-3 - Master Of Puppets - 8:25
2-4 - Battery - 5:14
2-5 - Nothing Else Matters - 7:22
2-6 - Enter Sandman - 6:22
2-7 - Hit The Lights - 4:40
2-8 - Orion - 8:27

EAC-Log, CUE-Sheed & NFO:

Click to open spoiler
Exact Audio Copy V0.99 prebeta 5 from 4. May 2009

EAC extraction logfile from 3. October 2013, 16:00

Metallica / Through The Never (Disc 1) [UICN-1046]

Used drive : PLEXTOR DVDR PX-760A Adapter: 0 ID: 0

Read mode : Secure
Utilize accurate stream : Yes
Defeat audio cache : Yes
Make use of C2 pointers : No

Read offset correction : 30
Overread into Lead-In and Lead-Out : No
Fill up missing offset samples with silence : Yes
Delete leading and trailing silent blocks : No
Null samples used in CRC calculations : Yes
Used interface : Native Win32 interface for Win NT & 2000

Used output format : User Defined Encoder
Selected bitrate : 1024 kBit/s
Quality : High
Add ID3 tag : No
Command line compressor : C:\Program Files (x86)\Exact Audio Copy\Flac\flac.exe
Additional command line options : -8 -V %s

TOC of the extracted CD

Track | Start | Length | Start sector | End sector
———————————————————
1 | 0:00.00 | 2:01.28 | 0 | 9102
2 | 2:01.28 | 6:19.01 | 9103 | 37528
3 | 8:20.29 | 4:39.38 | 37529 | 58491
4 | 12:59.67 | 3:57.32 | 58492 | 76298
5 | 16:57.24 | 6:54.23 | 76299 | 107371
6 | 23:51.47 | 8:24.43 | 107372 | 145214
7 | 32:16.15 | 5:42.60 | 145215 | 170924
8 | 37:59.00 | 6:18.21 | 170925 | 199295

Range status and errors

Selected range

Filename D:\bki71\Metallica\Metallica – Through The Never (Disc 1) [UICN-1046].wav

Peak level 100.0 %
Range quality 100.0 %
Test CRC 34116362
Copy CRC 34116362
Copy OK

No errors occurred

AccurateRip summary

Track 1 accurately ripped (confidence 2) [9439D119]
Track 2 accurately ripped (confidence 2) [B7F603A5]
Track 3 accurately ripped (confidence 2) [1469B2C3]
Track 4 accurately ripped (confidence 2) [DE838B21]
Track 5 accurately ripped (confidence 2) [C8AB9ECF]
Track 6 accurately ripped (confidence 2) [2B75FEBE]
Track 7 accurately ripped (confidence 2) [45261CCB]
Track 8 accurately ripped (confidence 2) [B6CDA2D7]

All tracks accurately ripped

End of status report

Exact Audio Copy V0.99 prebeta 5 from 4. May 2009

EAC extraction logfile from 3. October 2013, 17:34

Metallica / Through The Never (Disc 2) [UICN-1047]

Used drive : PLEXTOR DVDR PX-760A Adapter: 0 ID: 0

Read mode : Secure
Utilize accurate stream : Yes
Defeat audio cache : Yes
Make use of C2 pointers : No

Read offset correction : 30
Overread into Lead-In and Lead-Out : No
Fill up missing offset samples with silence : Yes
Delete leading and trailing silent blocks : No
Null samples used in CRC calculations : Yes
Used interface : Native Win32 interface for Win NT & 2000

Used output format : User Defined Encoder
Selected bitrate : 1024 kBit/s
Quality : High
Add ID3 tag : No
Command line compressor : C:\Program Files (x86)\Exact Audio Copy\Flac\flac.exe
Additional command line options : -8 -V %s

TOC of the extracted CD

Track | Start | Length | Start sector | End sector
———————————————————
1 | 0:00.00 | 7:01.32 | 0 | 31606
2 | 7:01.32 | 9:17.55 | 31607 | 73436
3 | 16:19.12 | 8:25.27 | 73437 | 111338
4 | 24:44.39 | 5:13.44 | 111339 | 134857
5 | 29:58.08 | 7:21.72 | 134858 | 168004
6 | 37:20.05 | 6:21.50 | 168005 | 196629
7 | 43:41.55 | 4:39.65 | 196630 | 217619
8 | 48:21.45 | 8:26.66 | 217620 | 255635

Range status and errors

Selected range

Filename D:\bki71\Metallica\Metallica – Through The Never (Disc 2) [UICN-1047].wav

Peak level 100.0 %
Range quality 100.0 %
Test CRC 9E1859C0
Copy CRC 9E1859C0
Copy OK

No errors occurred

AccurateRip summary

Track 1 accurately ripped (confidence 2) [23F9CB27]
Track 2 accurately ripped (confidence 2) [E882C3D6]
Track 3 cannot be verified as accurate (confidence 6) [ABDD5447], AccurateRip returned [3D54F639]
Track 4 accurately ripped (confidence 2) [4E655FD1]
Track 5 accurately ripped (confidence 2) [FC982B4D]
Track 6 accurately ripped (confidence 2) [EC8556E4]
Track 7 accurately ripped (confidence 2) [A6C98578]
Track 8 accurately ripped (confidence 2) [7E88B507]

7 track(s) accurately ripped
1 track(s) could not be verified as accurate

Some tracks could not be verified as accurate

End of status report

REM GENRE “Thrash Metal”
REM DATE 2013
REM DISCID 570A6108
REM COMMENT “ExactAudioCopy v0.99pb5”
PERFORMER “Metallica”
TITLE “Through The Never (Disc 1) [UICN-1046]”
FILE “Metallica – Through The Never (Disc 1) [UICN-1046].flac” WAVE
TRACK 01 AUDIO
TITLE “The Ecstasy Of Gold”
PERFORMER “Metallica”
INDEX 01 00:00:00
TRACK 02 AUDIO
TITLE “Creeping Death”
PERFORMER “Metallica”
INDEX 01 02:01:28
TRACK 03 AUDIO
TITLE “For Whom The Bell Tolls”
PERFORMER “Metallica”
INDEX 01 08:20:29
TRACK 04 AUDIO
TITLE “Fuel”
PERFORMER “Metallica”
INDEX 01 12:59:67
TRACK 05 AUDIO
TITLE “Ride The Lightning”
PERFORMER “Metallica”
INDEX 01 16:57:24
TRACK 06 AUDIO
TITLE “One”
PERFORMER “Metallica”
INDEX 01 23:51:47
TRACK 07 AUDIO
TITLE “The Memory Remains”
PERFORMER “Metallica”
INDEX 01 32:16:15
TRACK 08 AUDIO
TITLE “Wherever I May Roam”
PERFORMER “Metallica”
INDEX 01 37:59:00

REM GENRE “Thrash Metal”
REM DATE 2013
REM DISCID 5E0D5008
REM COMMENT “ExactAudioCopy v0.99pb5”
PERFORMER “Metallica”
TITLE “Through The Never (Disc 2) [UICN-1047]”
FILE “Metallica – Through The Never (Disc 2) [UICN-1047].flac” WAVE
TRACK 01 AUDIO
TITLE “Cyanide”
PERFORMER “Metallica”
INDEX 01 00:00:00
TRACK 02 AUDIO
TITLE “…And Justice For All”
PERFORMER “Metallica”
INDEX 01 07:01:32
TRACK 03 AUDIO
TITLE “Master Of Puppets”
PERFORMER “Metallica”
INDEX 01 16:19:12
TRACK 04 AUDIO
TITLE “Battery”
PERFORMER “Metallica”
INDEX 01 24:44:39
TRACK 05 AUDIO
TITLE “Nothing Else Matters”
PERFORMER “Metallica”
INDEX 01 29:58:08
TRACK 06 AUDIO
TITLE “Enter Sandman”
PERFORMER “Metallica”
INDEX 01 37:20:05
TRACK 07 AUDIO
TITLE “Hit The Lights”
PERFORMER “Metallica”
INDEX 01 43:41:55
TRACK 08 AUDIO
TITLE “Orion”
PERFORMER “Metallica”
INDEX 01 48:21:45

Leave a Reply

Your email address will not be published. Required fields are marked *

This site uses Akismet to reduce spam. Learn how your comment data is processed.