Metallica – St. Anger




No Cover available

Artist: Metallica
Year: 2003
Genre: Metal
Notes: Discogs
Add. Notes:
Watch Songs on: YouTube
Cover incl.: Yes
Encoder: FLAC
Bitrate: ~1100 kBit/s (44.1 kHz/16 Bit/s)
Log & Cue incl.: Yes/Yes
Size: 588,8 MB
Password: “slam” (without ” “)


All Downloads/Hosters are compatible

Download 1
KatFile.com
Turbobit.net
FileFactory.com
Rapidgator.net
Download 2
KatFile.com
Turbobit.net
FileFactory.com
Rapidgator.net

Tracklist:

1 Frantic 5:50
2 St. Anger 7:21
3 Some Kind Of Monster 8:26
4 Dirty Window 5:25
5 Invisible Kid 8:30
6 My World 5:46
7 Shoot Me Again 7:10
8 Sweet Amber 5:27
9 The Unnamed Feeling 7:09
10 Purify 5:14
11 All Within My Hands 8:48

EAC-Log, CUE-Sheed & NFO:

Click to open spoiler
Exact Audio Copy V0.99 prebeta 5 from 4. May 2009

EAC extraction logfile from 5. August 2010, 20:24

Metallica / St. Anger

Used drive : Optiarc DVD RW AD-7590S Adapter: 2 ID: 0

Read mode : Secure
Utilize accurate stream : Yes
Defeat audio cache : No
Make use of C2 pointers : Yes

Read offset correction : 48
Overread into Lead-In and Lead-Out : No
Fill up missing offset samples with silence : Yes
Delete leading and trailing silent blocks : No
Null samples used in CRC calculations : No
Used interface : Native Win32 interface for Win NT & 2000
Gap handling : Appended to previous track

Used output format : User Defined Encoder
Selected bitrate : 1024 kBit/s
Quality : High
Add ID3 tag : Yes
Command line compressor : C:\Program Files\FLAC\flac.exe
Additional command line options : -0 -T “artist=%a” -T “title=%t” -T “album=%g” -T “date=%y” -T “tracknumber=%n” -T “genre=%m” -T “comment=%c” %s

TOC of the extracted CD

Track | Start | Length | Start sector | End sector
———————————————————
1 | 0:00.00 | 5:50.27 | 0 | 26276
2 | 5:50.27 | 7:21.10 | 26277 | 59361
3 | 13:11.37 | 8:25.40 | 59362 | 97276
4 | 21:37.02 | 5:24.68 | 97277 | 121644
5 | 27:01.70 | 8:30.07 | 121645 | 159901
6 | 35:32.02 | 5:45.40 | 159902 | 185816
7 | 41:17.42 | 7:10.08 | 185817 | 218074
8 | 48:27.50 | 5:27.10 | 218075 | 242609
9 | 53:54.60 | 7:09.30 | 242610 | 274814
10 | 61:04.15 | 5:13.70 | 274815 | 298359
11 | 66:18.10 | 8:47.67 | 298360 | 337951

Track 1

Filename F:\Metallica\(2003) St. Anger\01. Frantic.wav

Pre-gap length 0:00:02.00

Peak level 100.0 %
Track quality 100.0 %
Copy CRC 497BD860
Accurately ripped (confidence 17) [732A9F99]
Copy OK

Track 2

Filename F:\Metallica\(2003) St. Anger\02. St. Anger.wav

Peak level 98.8 %
Track quality 99.9 %
Copy CRC 19A801DE
Accurately ripped (confidence 17) [4B01FC6B]
Copy OK

Track 3

Filename F:\Metallica\(2003) St. Anger\03. Some Kind Of Monster.wav

Peak level 100.0 %
Track quality 100.0 %
Copy CRC 12173E4D
Accurately ripped (confidence 16) [63B397A5]
Copy OK

Track 4

Filename F:\Metallica\(2003) St. Anger\04. Dirty Window.wav

Peak level 98.8 %
Track quality 100.0 %
Copy CRC 64E0C3C6
Accurately ripped (confidence 18) [7A2802B3]
Copy OK

Track 5

Filename F:\Metallica\(2003) St. Anger\05. Invisible Kid.wav

Peak level 98.8 %
Track quality 100.0 %
Copy CRC ED1B6F30
Accurately ripped (confidence 18) [4AE7F527]
Copy OK

Track 6

Filename F:\Metallica\(2003) St. Anger\06. My World.wav

Peak level 98.8 %
Track quality 100.0 %
Copy CRC 2027D39E
Accurately ripped (confidence 17) [13E096E1]
Copy OK

Track 7

Filename F:\Metallica\(2003) St. Anger\07. Shoot Me Again.wav

Peak level 98.8 %
Track quality 100.0 %
Copy CRC 02581B2B
Accurately ripped (confidence 17) [806EB128]
Copy OK

Track 8

Filename F:\Metallica\(2003) St. Anger\08. Sweet Amber.wav

Peak level 98.8 %
Track quality 100.0 %
Copy CRC 860F35DC
Accurately ripped (confidence 17) [BC92DE3E]
Copy OK

Track 9

Filename F:\Metallica\(2003) St. Anger\09. The Unnamed Feeling.wav

Peak level 98.8 %
Track quality 100.0 %
Copy CRC 5FA46E80
Accurately ripped (confidence 16) [07229DEB]
Copy OK

Track 10

Filename F:\Metallica\(2003) St. Anger\10. Purify.wav

Pre-gap length 0:00:01.38

Peak level 100.0 %
Track quality 100.0 %
Copy CRC CDC10247
Accurately ripped (confidence 17) [A9D7BD59]
Copy OK

Track 11

Filename F:\Metallica\(2003) St. Anger\11. All Within My Hands.wav

Peak level 100.0 %
Track quality 100.0 %
Copy CRC 663A3B5E
Accurately ripped (confidence 15) [610FF51C]
Copy OK

All tracks accurately ripped

No errors occurred

End of status report

REM GENRE “Thrash Metal”
REM DATE 2003
REM DISCID AB119A0B
REM COMMENT “ExactAudioCopy v0.99pb5”
CATALOG 0602498653296
PERFORMER “Metallica”
TITLE “St. Anger”
FILE “Metallica\(2003) St. Anger\01. Frantic.wav” WAVE
TRACK 01 AUDIO
TITLE “Frantic”
PERFORMER “Metallica”
ISRC GBAMC0300001
INDEX 01 00:00:00
FILE “Metallica\(2003) St. Anger\02. St. Anger.wav” WAVE
TRACK 02 AUDIO
TITLE “St. Anger”
PERFORMER “Metallica”
ISRC GBAMC0300002
INDEX 01 00:00:00
FILE “Metallica\(2003) St. Anger\03. Some Kind Of Monster.wav” WAVE
TRACK 03 AUDIO
TITLE “Some Kind Of Monster”
PERFORMER “Metallica”
ISRC GBAMC0300003
INDEX 01 00:00:00
FILE “Metallica\(2003) St. Anger\04. Dirty Window.wav” WAVE
TRACK 04 AUDIO
TITLE “Dirty Window”
PERFORMER “Metallica”
ISRC GBAMC0300004
INDEX 01 00:00:00
FILE “Metallica\(2003) St. Anger\05. Invisible Kid.wav” WAVE
TRACK 05 AUDIO
TITLE “Invisible Kid”
PERFORMER “Metallica”
ISRC GBAMC0300005
INDEX 01 00:00:00
FILE “Metallica\(2003) St. Anger\06. My World.wav” WAVE
TRACK 06 AUDIO
TITLE “My World”
PERFORMER “Metallica”
ISRC GBAMC0300006
INDEX 01 00:00:00
INDEX 02 05:45:40
FILE “Metallica\(2003) St. Anger\07. Shoot Me Again.wav” WAVE
TRACK 07 AUDIO
TITLE “Shoot Me Again”
PERFORMER “Metallica”
ISRC GBAMC0300007
INDEX 01 00:00:00
FILE “Metallica\(2003) St. Anger\08. Sweet Amber.wav” WAVE
TRACK 08 AUDIO
TITLE “Sweet Amber”
PERFORMER “Metallica”
ISRC GBAMC0300008
INDEX 01 00:00:00
FILE “Metallica\(2003) St. Anger\09. The Unnamed Feeling.wav” WAVE
TRACK 09 AUDIO
TITLE “The Unnamed Feeling”
PERFORMER “Metallica”
ISRC GBAMC0300009
INDEX 01 00:00:00
FILE “Metallica\(2003) St. Anger\10. Purify.wav” WAVE
TRACK 10 AUDIO
TITLE “Purify”
PERFORMER “Metallica”
ISRC GBAMC0300010
INDEX 00 00:00:00
INDEX 01 00:01:38
FILE “Metallica\(2003) St. Anger\11. All Within My Hands.wav” WAVE
TRACK 11 AUDIO
TITLE “All Within My Hands”
PERFORMER “Metallica”
ISRC GBAMC0300011
INDEX 01 00:00:00


Leave a Reply

Your email address will not be published. Required fields are marked *

This site uses Akismet to reduce spam. Learn how your comment data is processed.