Metallica – St. Anger (Promo)




Artist: Metallica
Year: 2003
Genre: Metal
Notes: Discogs
Add. Notes:
Cover incl.: Yes
Encoder: FLAC
Bitrate: ~1000 kBit/s (44.1 kHz/16 Bit/s)
Log & Cue incl.: Yes
Size: 589,01 MB
Password: “slam” (without ” “)


All Downloads/Hosters are compatible

Download 1
Turbobit.net
Rapidgator.net
UploadEver.com
KatFile.com
UsersDrive.com
Download 2
Turbobit.net
Rapidgator.net
UploadEver.com
KatFile.com
UsersDrive.com
Download 3
Turbobit.net
Rapidgator.net
UploadEver.com
KatFile.com
UsersDrive.com

Tracklist:

1 - Frantic - 5:50
2 - St. Anger - 7:21
3 - Some Kind Of Monster - 8:25
4 - Dirty Window - 5:24
5 - Invisible Kid - 8:30
6 - My World - 5:45
7 - Shoot Me Again - 7:10
8 - Sweet Amber - 5:27
9 - The Unnamed Feeling - 7:09
10 - Purify - 5:13
11 - All Within My Hands - 8:49

EAC-Log, CUE-Sheed & NFO:

Click to open spoiler
Exact Audio Copy V0.99 prebeta 5 from 4. May 2009

EAC extraction logfile from 10. February 2012, 21:22

Metallica / St. Anger (USA Promo CD, Elektra 62879-2)

Used drive : PIONEER DVD-RW DVR-215 Adapter: 5 ID: 0

Read mode : Secure
Utilize accurate stream : Yes
Defeat audio cache : Yes
Make use of C2 pointers : No

Read offset correction : 48
Overread into Lead-In and Lead-Out : No
Fill up missing offset samples with silence : Yes
Delete leading and trailing silent blocks : No
Null samples used in CRC calculations : Yes
Used interface : Native Win32 interface for Win NT & 2000

Used output format : User Defined Encoder
Selected bitrate : 1024 kBit/s
Quality : High
Add ID3 tag : No
Command line compressor : C:\Program Files (x86)\Exact Audio Copy\Flac\flac.exe
Additional command line options : -8 -V %s

TOC of the extracted CD

Track | Start | Length | Start sector | End sector
———————————————————
1 | 0:00.00 | 5:50.27 | 0 | 26276
2 | 5:50.27 | 7:21.13 | 26277 | 59364
3 | 13:11.40 | 8:25.37 | 59365 | 97276
4 | 21:37.02 | 5:24.70 | 97277 | 121646
5 | 27:01.72 | 8:30.08 | 121647 | 159904
6 | 35:32.05 | 5:45.40 | 159905 | 185819
7 | 41:17.45 | 7:10.00 | 185820 | 218069
8 | 48:27.45 | 5:27.10 | 218070 | 242604
9 | 53:54.55 | 7:09.30 | 242605 | 274809
10 | 61:04.10 | 5:13.67 | 274810 | 298351
11 | 66:18.02 | 8:47.70 | 298352 | 337946
12 | 77:37.72 | 1:50.54 | 349347 | 357650

Range status and errors

Selected range

Filename E:\bki71\Metallica\Metallica – St. Anger (USA Promo CD, Elektra 62879-2).wav

Peak level 100.0 %
Range quality 100.0 %
Test CRC C6449672
Copy CRC C6449672
Copy OK

No errors occurred

AccurateRip summary

Track 1 accurately ripped (confidence 8) [23BE1D21]
Track 2 accurately ripped (confidence 8) [B7C74859]
Track 3 accurately ripped (confidence 7) [5580F065]
Track 4 accurately ripped (confidence 8) [6BB17098]
Track 5 accurately ripped (confidence 6) [8111B6D9]
Track 6 accurately ripped (confidence 7) [D5B32C9B]
Track 7 accurately ripped (confidence 6) [49A62CA6]
Track 8 accurately ripped (confidence 7) [C7AEC02F]
Track 9 accurately ripped (confidence 8) [A9816BA5]
Track 10 accurately ripped (confidence 6) [DD2DCE13]
Track 11 accurately ripped (confidence 6) [5DDC54DC]

All tracks accurately ripped

End of status report

REM GENRE “Thrash Metal”
REM DATE 2003
REM DISCID C312A00C
REM COMMENT “ExactAudioCopy v0.99pb5”
PERFORMER “Metallica”
TITLE “St. Anger (USA Promo CD, Elektra 62879-2)”
FILE “Metallica – St. Anger (USA Promo CD, Elektra 62879-2).flac” WAVE
TRACK 01 AUDIO
TITLE “Frantic”
PERFORMER “Metallica”
INDEX 01 00:00:00
TRACK 02 AUDIO
TITLE “St. Anger”
PERFORMER “Metallica”
INDEX 01 05:50:27
TRACK 03 AUDIO
TITLE “Some Kind Of Monster”
PERFORMER “Metallica”
INDEX 01 13:11:40
TRACK 04 AUDIO
TITLE “Dirty Window”
PERFORMER “Metallica”
INDEX 01 21:37:02
TRACK 05 AUDIO
TITLE “Invisible Kid”
PERFORMER “Metallica”
INDEX 01 27:01:72
TRACK 06 AUDIO
TITLE “My World”
PERFORMER “Metallica”
INDEX 01 35:32:05
TRACK 07 AUDIO
TITLE “Shoot Me Again”
PERFORMER “Metallica”
INDEX 01 41:17:45
TRACK 08 AUDIO
TITLE “Sweet Amber”
PERFORMER “Metallica”
INDEX 01 48:27:45
TRACK 09 AUDIO
TITLE “The Unnamed Feeling”
PERFORMER “Metallica”
INDEX 01 53:54:55
TRACK 10 AUDIO
TITLE “Purify”
PERFORMER “Metallica”
INDEX 00 61:02:45
INDEX 01 61:04:10
TRACK 11 AUDIO
TITLE “All Within My Hands”
PERFORMER “Metallica”
INDEX 01 66:18:02

Leave a Reply

Your email address will not be published. Required fields are marked *

Enter the text from the image below
 

This site uses Akismet to reduce spam. Learn how your comment data is processed.