Metallica – S&M




Artist: Metallica
Year: 1999
Genre: Metal
Notes: Discogs
Add. Notes:
Encoder: FLAC
Bitrate: ~1100 kBit/s (VBR)
Size: 1162,65 MB
Password: “slam” (without ” “)


Tracklist:

1-1 - The Ecstasy Of Gold - 2:30
1-2 - The Call Of Ktulu - 9:34
1-3 - Master Of Puppets - 8:54
1-4 - Of Wolf And Man - 4:18
1-5 - The Thing That Should Not Be - 7:26
1-6 - Fuel - 4:35
1-7 - The Memory Remains - 4:42
1-8 - No Leaf Clover - 5:43
1-9 - Hero Of The Day - 4:44
1-10 - Devil's Dance - 5:26
1-11 - Bleeding Me - 9:01
2-1 - Nothing Else Matters - 6:47
2-2 - Until It Sleeps - 4:29
2-3 - For Whom The Bell Tolls - 4:52
2-4 - - Human - 4:19
2-5 - Wherever I May Roam - 7:01
2-6 - Outlaw Torn - 9:58
2-7 - Sad But True - 5:46
2-8 - One - 7:53
2-9 - Enter Sandman - 7:39
2-10 - Battery - 7:24

EAC-Log, CUE-Sheed & NFO:

Click to open spoiler
Exact Audio Copy V0.99 prebeta 5 from 4. May 2009

EAC extraction logfile from 5. August 2010, 19:54

Metallica / S&M

Used drive : Optiarc DVD RW AD-7590S Adapter: 2 ID: 0

Read mode : Secure
Utilize accurate stream : Yes
Defeat audio cache : No
Make use of C2 pointers : Yes

Read offset correction : 48
Overread into Lead-In and Lead-Out : No
Fill up missing offset samples with silence : Yes
Delete leading and trailing silent blocks : No
Null samples used in CRC calculations : No
Used interface : Native Win32 interface for Win NT & 2000
Gap handling : Appended to previous track

Used output format : User Defined Encoder
Selected bitrate : 1024 kBit/s
Quality : High
Add ID3 tag : Yes
Command line compressor : C:\Program Files\FLAC\flac.exe
Additional command line options : -0 -T “artist=%a” -T “title=%t” -T “album=%g” -T “date=%y” -T “tracknumber=%n” -T “genre=%m” -T “comment=%c” %s

TOC of the extracted CD

Track | Start | Length | Start sector | End sector
———————————————————
1 | 0:00.00 | 2:30.45 | 0 | 11294
2 | 2:30.45 | 9:34.20 | 11295 | 54364
3 | 12:04.65 | 8:54.57 | 54365 | 94471
4 | 20:59.47 | 4:18.65 | 94472 | 113886
5 | 25:18.37 | 7:26.65 | 113887 | 147401
6 | 32:45.27 | 4:35.53 | 147402 | 168079
7 | 37:21.05 | 4:42.27 | 168080 | 189256
8 | 42:03.32 | 5:43.15 | 189257 | 214996
9 | 47:46.47 | 4:44.48 | 214997 | 236344
10 | 52:31.20 | 5:26.00 | 236345 | 260794
11 | 57:57.20 | 9:01.47 | 260795 | 301416

Track 1

Filename F:\Metallica\(1999) S&M\01. The Ecstasy Of Gold.wav

Pre-gap length 0:00:02.00

Peak level 100.0 %
Track quality 100.0 %
Copy CRC 99B691B3
Accurately ripped (confidence 200) [FB221EC9]
Copy OK

Track 2

Filename F:\Metallica\(1999) S&M\02. The Call Of Ktulu.wav

Peak level 100.0 %
Track quality 100.0 %
Copy CRC 90DEDA39
Accurately ripped (confidence 200) [137CA9E9]
Copy OK

Track 3

Filename F:\Metallica\(1999) S&M\03. Master Of Puppets.wav

Peak level 100.0 %
Track quality 99.7 %
Copy CRC FA9C66EC
Cannot be verified as accurate (confidence 200) [03222FE2], AccurateRip returned [DFE4087F]
Copy OK

Track 4

Filename F:\Metallica\(1999) S&M\04. Of Wolf And Man.wav

Peak level 100.0 %
Track quality 99.9 %
Copy CRC 54FC01FA
Accurately ripped (confidence 200) [1F40B64F]
Copy OK

Track 5

Filename F:\Metallica\(1999) S&M\05. The Thing That Should Not Be.wav

Peak level 100.0 %
Track quality 99.9 %
Copy CRC 1F9BD67B
Accurately ripped (confidence 200) [D7B141B5]
Copy OK

Track 6

Filename F:\Metallica\(1999) S&M\06. Fuel.wav

Peak level 100.0 %
Track quality 99.9 %
Copy CRC 0B48FEA6
Accurately ripped (confidence 200) [0C8973B4]
Copy OK

Track 7

Filename F:\Metallica\(1999) S&M\07. The Memory Remains.wav

Peak level 100.0 %
Track quality 100.0 %
Copy CRC 2EDA6B9F
Accurately ripped (confidence 200) [FDEBFA97]
Copy OK

Track 8

Filename F:\Metallica\(1999) S&M\08. No Leaf Clover.wav

Peak level 100.0 %
Track quality 100.0 %
Copy CRC 3FD9706A
Accurately ripped (confidence 200) [72852D22]
Copy OK

Track 9

Filename F:\Metallica\(1999) S&M\09. Hero Of The Day.wav

Peak level 100.0 %
Track quality 99.9 %
Copy CRC 0EFA0645
Accurately ripped (confidence 200) [DF5117F7]
Copy OK

Track 10

Filename F:\Metallica\(1999) S&M\10. Devil’s Dance.wav

Peak level 100.0 %
Track quality 100.0 %
Copy CRC 320E59EB
Accurately ripped (confidence 200) [E810108D]
Copy OK

Track 11

Filename F:\Metallica\(1999) S&M\11. Bleeding Me.wav

Peak level 100.0 %
Track quality 100.0 %
Copy CRC 391AFC95
Accurately ripped (confidence 200) [8E776E27]
Copy OK

10 track(s) accurately ripped
1 track(s) could not be verified as accurate

Some tracks could not be verified as accurate

No errors occurred

End of status report

Exact Audio Copy V0.99 prebeta 5 from 4. May 2009

EAC extraction logfile from 5. August 2010, 20:05

Metallica / S&M

Used drive : Optiarc DVD RW AD-7590S Adapter: 2 ID: 0

Read mode : Secure
Utilize accurate stream : Yes
Defeat audio cache : No
Make use of C2 pointers : Yes

Read offset correction : 48
Overread into Lead-In and Lead-Out : No
Fill up missing offset samples with silence : Yes
Delete leading and trailing silent blocks : No
Null samples used in CRC calculations : No
Used interface : Native Win32 interface for Win NT & 2000
Gap handling : Appended to previous track

Used output format : User Defined Encoder
Selected bitrate : 1024 kBit/s
Quality : High
Add ID3 tag : Yes
Command line compressor : C:\Program Files\FLAC\flac.exe
Additional command line options : -0 -T “artist=%a” -T “title=%t” -T “album=%g” -T “date=%y” -T “tracknumber=%n” -T “genre=%m” -T “comment=%c” %s

TOC of the extracted CD

Track | Start | Length | Start sector | End sector
———————————————————
1 | 0:00.00 | 6:47.57 | 0 | 30581
2 | 6:47.57 | 4:29.73 | 30582 | 50829
3 | 11:17.55 | 4:52.12 | 50830 | 72741
4 | 16:09.67 | 4:19.60 | 72742 | 92226
5 | 20:29.52 | 7:01.35 | 92227 | 123836
6 | 27:31.12 | 9:58.68 | 123837 | 168754
7 | 37:30.05 | 5:46.20 | 168755 | 194724
8 | 43:16.25 | 7:53.05 | 194725 | 230204
9 | 51:09.30 | 7:39.10 | 230205 | 264639
10 | 58:48.40 | 7:24.50 | 264640 | 297989

Track 1

Filename F:\Metallica\(1999) S&M\01. Nothing Else Matters.wav

Pre-gap length 0:00:02.00

Peak level 100.0 %
Track quality 100.0 %
Copy CRC FD3A90B2
Accurately ripped (confidence 200) [17672E74]
Copy OK

Track 2

Filename F:\Metallica\(1999) S&M\02. Until It Sleeps.wav

Peak level 100.0 %
Track quality 99.9 %
Copy CRC 917C3653
Accurately ripped (confidence 200) [85EED7BF]
Copy OK

Track 3

Filename F:\Metallica\(1999) S&M\03. For Whom the Bell Tolls.wav

Peak level 100.0 %
Track quality 100.0 %
Copy CRC 0375C999
Accurately ripped (confidence 200) [0CA7F874]
Copy OK

Track 4

Filename F:\Metallica\(1999) S&M\04. Human.wav

Peak level 100.0 %
Track quality 100.0 %
Copy CRC 9B3D33ED
Accurately ripped (confidence 200) [DDFE20C9]
Copy OK

Track 5

Filename F:\Metallica\(1999) S&M\05. Wherever I May Roam.wav

Peak level 100.0 %
Track quality 100.0 %
Copy CRC D9D44B80
Accurately ripped (confidence 200) [47B51F48]
Copy OK

Track 6

Filename F:\Metallica\(1999) S&M\06. Outlaw Torn.wav

Peak level 100.0 %
Track quality 99.9 %
Copy CRC 890E3D03
Accurately ripped (confidence 200) [EB7C5766]
Copy OK

Track 7

Filename F:\Metallica\(1999) S&M\07. Sad But True.wav

Peak level 100.0 %
Track quality 100.0 %
Copy CRC 5880FD3D
Accurately ripped (confidence 200) [164CA7E5]
Copy OK

Track 8

Filename F:\Metallica\(1999) S&M\08. One.wav

Peak level 100.0 %
Track quality 100.0 %
Copy CRC 000D60DF
Accurately ripped (confidence 200) [A5A4498C]
Copy OK

Track 9

Filename F:\Metallica\(1999) S&M\09. Enter Sandman.wav

Peak level 100.0 %
Track quality 100.0 %
Copy CRC FCB850EC
Accurately ripped (confidence 200) [46C97675]
Copy OK

Track 10

Filename F:\Metallica\(1999) S&M\10. Battery.wav

Peak level 100.0 %
Track quality 100.0 %
Copy CRC C96D722D
Accurately ripped (confidence 200) [675391FF]
Copy OK

All tracks accurately ripped

No errors occurred

End of status report

REM GENRE “Alternative Metal”
REM DATE 1999
REM DISCID 960FB20B
REM COMMENT “ExactAudioCopy v0.99pb5”
CATALOG 0731454679824
PERFORMER “Metallica”
TITLE “S&M (Disc 1)”
FILE “Metallica\(1999) S&M (Disc 1)\01. The Ecstasy Of Gold.wav” WAVE
TRACK 01 AUDIO
TITLE “The Ecstasy Of Gold”
PERFORMER “Metallica”
ISRC GBAMC9900004
INDEX 01 00:00:00
FILE “Metallica\(1999) S&M (Disc 1)\02. The Call Of Ktulu.wav” WAVE
TRACK 02 AUDIO
TITLE “The Call Of Ktulu”
PERFORMER “Metallica”
ISRC GBAMC9900005
INDEX 01 00:00:00
FILE “Metallica\(1999) S&M (Disc 1)\03. Master Of Puppets.wav” WAVE
TRACK 03 AUDIO
TITLE “Master Of Puppets”
PERFORMER “Metallica”
ISRC GBAMC9900006
INDEX 01 00:00:00
FILE “Metallica\(1999) S&M (Disc 1)\04. Of Wolf And Man.wav” WAVE
TRACK 04 AUDIO
TITLE “Of Wolf And Man”
PERFORMER “Metallica”
ISRC GBAMC9900007
INDEX 01 00:00:00
FILE “Metallica\(1999) S&M (Disc 1)\05. The Thing That Should Not Be.wav” WAVE
TRACK 05 AUDIO
TITLE “The Thing That Should Not Be”
PERFORMER “Metallica”
ISRC GBAMC9900008
INDEX 01 00:00:00
FILE “Metallica\(1999) S&M (Disc 1)\06. Fuel.wav” WAVE
TRACK 06 AUDIO
TITLE “Fuel”
PERFORMER “Metallica”
ISRC GBAMC9900009
INDEX 01 00:00:00
FILE “Metallica\(1999) S&M (Disc 1)\07. The Memory Remains.wav” WAVE
TRACK 07 AUDIO
TITLE “The Memory Remains”
PERFORMER “Metallica”
ISRC GBAMC9900010
INDEX 01 00:00:00
FILE “Metallica\(1999) S&M (Disc 1)\08. No Leaf Clover.wav” WAVE
TRACK 08 AUDIO
TITLE “No Leaf Clover”
PERFORMER “Metallica”
ISRC GBAMC9900011
INDEX 01 00:00:00
FILE “Metallica\(1999) S&M (Disc 1)\09. Hero Of The Day.wav” WAVE
TRACK 09 AUDIO
TITLE “Hero Of The Day”
PERFORMER “Metallica”
ISRC GBAMC9900012
INDEX 01 00:00:00
FILE “Metallica\(1999) S&M (Disc 1)\10. Devil’s Dance.wav” WAVE
TRACK 10 AUDIO
TITLE “Devil’s Dance”
PERFORMER “Metallica”
ISRC GBAMC9900013
INDEX 01 00:00:00
FILE “Metallica\(1999) S&M (Disc 1)\11. Bleeding Me.wav” WAVE
TRACK 11 AUDIO
TITLE “Bleeding Me”
PERFORMER “Metallica”
ISRC GBAMC9900014
INDEX 01 00:00:00

REM GENRE Metal
REM DATE 1999
REM DISCID 850F850A
REM COMMENT “ExactAudioCopy v0.99pb5”
PERFORMER “Metallica”
TITLE “S&M (Disc 2)”
FILE “Metallica\(1999) S&M (Disc 2)\01. Nothing Else Matters.wav” WAVE
TRACK 01 AUDIO
TITLE “Nothing Else Matters”
PERFORMER “Metallica”
ISRC GBAMC9900015
INDEX 01 00:00:00
FILE “Metallica\(1999) S&M (Disc 2)\02. Until It Sleeps.wav” WAVE
TRACK 02 AUDIO
TITLE “Until It Sleeps”
PERFORMER “Metallica”
ISRC GBAMC9900016
INDEX 01 00:00:00
FILE “Metallica\(1999) S&M (Disc 2)\03. For Whom the Bell Tolls.wav” WAVE
TRACK 03 AUDIO
TITLE “For Whom the Bell Tolls”
PERFORMER “Metallica”
ISRC GBAMC9900017
INDEX 01 00:00:00
FILE “Metallica\(1999) S&M (Disc 2)\04. Human.wav” WAVE
TRACK 04 AUDIO
TITLE “Human”
PERFORMER “Metallica”
ISRC GBAMC9900018
INDEX 01 00:00:00
FILE “Metallica\(1999) S&M (Disc 2)\05. Wherever I May Roam.wav” WAVE
TRACK 05 AUDIO
TITLE “Wherever I May Roam”
PERFORMER “Metallica”
ISRC GBAMC9900019
INDEX 01 00:00:00
FILE “Metallica\(1999) S&M (Disc 2)\06. Outlaw Torn.wav” WAVE
TRACK 06 AUDIO
TITLE “Outlaw Torn”
PERFORMER “Metallica”
ISRC GBAMC9900020
INDEX 01 00:00:00
FILE “Metallica\(1999) S&M (Disc 2)\07. Sad But True.wav” WAVE
TRACK 07 AUDIO
TITLE “Sad But True”
PERFORMER “Metallica”
ISRC GBAMC9900021
INDEX 01 00:00:00
FILE “Metallica\(1999) S&M (Disc 2)\08. One.wav” WAVE
TRACK 08 AUDIO
TITLE “One”
PERFORMER “Metallica”
ISRC GBAMC9900022
INDEX 01 00:00:00
FILE “Metallica\(1999) S&M (Disc 2)\09. Enter Sandman.wav” WAVE
TRACK 09 AUDIO
TITLE “Enter Sandman”
PERFORMER “Metallica”
ISRC GBAMC9900023
INDEX 01 00:00:00
FILE “Metallica\(1999) S&M (Disc 2)\10. Battery.wav” WAVE
TRACK 10 AUDIO
TITLE “Battery”
PERFORMER “Metallica”
ISRC GBAMC9900025
INDEX 01 00:00:00

0

Publication author

offline 7 days

Chaos

3
Comments: 4Publics: 3565Registration: 02-02-2019
Spread the Download

Leave a Reply

Your email address will not be published. Required fields are marked *

Enter the text from the image below
 

This site uses Akismet to reduce spam. Learn how your comment data is processed.