Metallica – S&M (Promo)




No Cover available

Artist: Metallica
Year: 1999
Genre: Metal
Notes: Discogs
Add. Notes: Promo
Watch Songs on: YouTube
Cover incl.: Yes
Encoder: FLAC
Bitrate: ~1000 kBit/s (44.1 kHz/16 Bit/s)
Log & Cue incl.: Yes
Size: 1045,1 MB
Password: “slam” (without ” “)


All Downloads/Hosters are compatible

Download 1
KatFile.com
Turbobit.net
FileFactory.com
Rapidgator.net
Download 2
KatFile.com
Turbobit.net
FileFactory.com
Rapidgator.net

Tracklist:

1-1 - The Ecstasy Of Gold - 2:30
1-2 - The Call Of Ktulu - 9:34
1-3 - Master Of Puppets - 8:54
1-4 - Of Wolf And Man - 4:18
1-5 - The Thing That Should Not Be - 7:26
1-6 - Fuel - 4:35
1-7 - The Memory Remains - 4:42
1-8 - No Leaf Clover - 5:43
1-9 - Hero Of The Day - 4:44
1-10 - Devil's Dance - 5:26
1-11 - Bleeding Me - 9:01
2-1 - Nothing Else Matters - 6:47
2-2 - Until It Sleeps - 4:29
2-3 - For Whom The Bell Tolls - 4:52
2-4 - - Human - 4:19
2-5 - Wherever I May Roam - 7:01
2-6 - Outlaw Torn - 9:58
2-7 - Sad But True - 5:46
2-8 - One - 7:53
2-9 - Enter Sandman - 7:39
2-10 - Battery - 7:24

EAC-Log, CUE-Sheed & NFO:

Click to open spoiler
Exact Audio Copy V0.99 prebeta 5 from 4. May 2009

EAC extraction logfile from 10. March 2012, 15:13

Metallica / S&M (Disc 1) [USA Elektra 62463-2]

Used drive : PIONEER DVD-RW DVR-215 Adapter: 5 ID: 0

Read mode : Secure
Utilize accurate stream : Yes
Defeat audio cache : Yes
Make use of C2 pointers : No

Read offset correction : 48
Overread into Lead-In and Lead-Out : No
Fill up missing offset samples with silence : Yes
Delete leading and trailing silent blocks : No
Null samples used in CRC calculations : Yes
Used interface : Native Win32 interface for Win NT & 2000

Used output format : User Defined Encoder
Selected bitrate : 1024 kBit/s
Quality : High
Add ID3 tag : No
Command line compressor : C:\Program Files (x86)\Exact Audio Copy\Flac\flac.exe
Additional command line options : -8 -V %s

TOC of the extracted CD

Track | Start | Length | Start sector | End sector
———————————————————
1 | 0:00.32 | 2:30.45 | 32 | 11326
2 | 2:31.02 | 9:34.20 | 11327 | 54396
3 | 12:05.22 | 8:54.58 | 54397 | 94504
4 | 21:00.05 | 4:18.65 | 94505 | 113919
5 | 25:18.70 | 7:26.50 | 113920 | 147419
6 | 32:45.45 | 4:35.67 | 147420 | 168111
7 | 37:21.37 | 4:42.28 | 168112 | 189289
8 | 42:03.65 | 5:43.15 | 189290 | 215029
9 | 47:47.05 | 4:44.47 | 215030 | 236376
10 | 52:31.52 | 5:26.00 | 236377 | 260826
11 | 57:57.52 | 9:01.48 | 260827 | 301449

Range status and errors

Selected range

Filename E:\bki71\Metallica\Metallica – S&M (Disc 1) [USA Elektra 62463-2].wav

Peak level 100.0 %
Range quality 100.0 %
Test CRC CC0B3536
Copy CRC CC0B3536
Copy OK

No errors occurred

AccurateRip summary

Track 1 accurately ripped (confidence 200) [9B64509B]
Track 2 accurately ripped (confidence 200) [B756201F]
Track 3 accurately ripped (confidence 200) [AE3279DF]
Track 4 accurately ripped (confidence 200) [1D210C6E]
Track 5 accurately ripped (confidence 200) [6C696835]
Track 6 accurately ripped (confidence 200) [AE1255BF]
Track 7 accurately ripped (confidence 200) [C0DEA823]
Track 8 accurately ripped (confidence 200) [4E1614CA]
Track 9 accurately ripped (confidence 200) [25F06BB6]
Track 10 accurately ripped (confidence 200) [39467BC9]
Track 11 accurately ripped (confidence 200) [B91B0D76]

All tracks accurately ripped

End of status report

Exact Audio Copy V0.99 prebeta 5 from 4. May 2009

EAC extraction logfile from 10. March 2012, 18:21

Metallica / S&M (Disc 2) [USA Elektra 62463-2]

Used drive : PIONEER DVD-RW DVR-215 Adapter: 5 ID: 0

Read mode : Secure
Utilize accurate stream : Yes
Defeat audio cache : Yes
Make use of C2 pointers : No

Read offset correction : 48
Overread into Lead-In and Lead-Out : No
Fill up missing offset samples with silence : Yes
Delete leading and trailing silent blocks : No
Null samples used in CRC calculations : Yes
Used interface : Native Win32 interface for Win NT & 2000

Used output format : User Defined Encoder
Selected bitrate : 1024 kBit/s
Quality : High
Add ID3 tag : No
Command line compressor : C:\Program Files (x86)\Exact Audio Copy\Flac\flac.exe
Additional command line options : -8 -V %s

TOC of the extracted CD

Track | Start | Length | Start sector | End sector
———————————————————
1 | 0:00.32 | 6:47.20 | 32 | 30576
2 | 6:47.52 | 4:29.73 | 30577 | 50824
3 | 11:17.50 | 4:52.12 | 50825 | 72736
4 | 16:09.62 | 4:19.60 | 72737 | 92221
5 | 20:29.47 | 7:01.35 | 92222 | 123831
6 | 27:31.07 | 9:58.68 | 123832 | 168749
7 | 37:30.00 | 5:46.20 | 168750 | 194719
8 | 43:16.20 | 7:53.05 | 194720 | 230199
9 | 51:09.25 | 7:39.10 | 230200 | 264634
10 | 58:48.35 | 7:24.50 | 264635 | 297984

Range status and errors

Selected range

Filename E:\bki71\Metallica\Metallica – S&M (Disc 2) [USA Elektra 62463-2].wav

Peak level 100.0 %
Range quality 99.9 %
Test CRC 5DC10074
Copy CRC 5DC10074
Copy OK

No errors occurred

AccurateRip summary

Track 1 accurately ripped (confidence 200) [135CF90F]
Track 2 accurately ripped (confidence 200) [9BF288BE]
Track 3 accurately ripped (confidence 200) [4DCAFD4D]
Track 4 accurately ripped (confidence 200) [49A3F356]
Track 5 accurately ripped (confidence 200) [A92D2F30]
Track 6 accurately ripped (confidence 200) [87060ECB]
Track 7 accurately ripped (confidence 200) [2914ABA0]
Track 8 accurately ripped (confidence 200) [B827FB45]
Track 9 accurately ripped (confidence 200) [DA9842E1]
Track 10 accurately ripped (confidence 200) [F7494DC6]

All tracks accurately ripped

End of status report

REM GENRE Metal
REM DATE 1999
REM DISCID 9A0FB30B
REM COMMENT “ExactAudioCopy v0.99pb5”
PERFORMER “Metallica”
TITLE “S&M (Disc 1) [USA Elektra 62463-2]”
FILE “Metallica – S&M (Disc 1) [USA Elektra 62463-2].flac” WAVE
TRACK 01 AUDIO
TITLE “The Ecstasy of Gold”
PERFORMER “Metallica”
INDEX 00 00:00:00
INDEX 01 00:00:32
TRACK 02 AUDIO
TITLE “The Call Of Ktulu”
PERFORMER “Metallica”
INDEX 01 02:31:02
TRACK 03 AUDIO
TITLE “Master Of Puppets”
PERFORMER “Metallica”
INDEX 01 12:05:22
TRACK 04 AUDIO
TITLE “Of Wolf And Man”
PERFORMER “Metallica”
INDEX 01 21:00:05
TRACK 05 AUDIO
TITLE “The Thing That Should Not Be”
PERFORMER “Metallica”
INDEX 01 25:18:70
TRACK 06 AUDIO
TITLE “Fuel”
PERFORMER “Metallica”
INDEX 01 32:45:45
TRACK 07 AUDIO
TITLE “The Memory Remains”
PERFORMER “Metallica”
INDEX 01 37:21:37
TRACK 08 AUDIO
TITLE “No Leaf Clover”
PERFORMER “Metallica”
INDEX 01 42:03:65
TRACK 09 AUDIO
TITLE “Hero Of The Day”
PERFORMER “Metallica”
INDEX 01 47:47:05
TRACK 10 AUDIO
TITLE “Devil’s Dance”
PERFORMER “Metallica”
INDEX 01 52:31:52
TRACK 11 AUDIO
TITLE “Bleeding Me”
PERFORMER “Metallica”
INDEX 01 57:57:52

REM GENRE Metal
REM DATE 1999
REM DISCID 850F850A
REM COMMENT “ExactAudioCopy v0.99pb5”
PERFORMER “Metallica”
TITLE “S&M (Disc 2) [USA Elektra 62463-2]”
FILE “Metallica – S&M (Disc 2) [USA Elektra 62463-2].flac” WAVE
TRACK 01 AUDIO
TITLE “Nothing Else Matters”
PERFORMER “Metallica”
INDEX 00 00:00:00
INDEX 01 00:00:32
TRACK 02 AUDIO
TITLE “Until It Sleeps”
PERFORMER “Metallica”
INDEX 01 06:47:52
TRACK 03 AUDIO
TITLE “For Whom The Bell Tolls”
PERFORMER “Metallica”
INDEX 01 11:17:50
TRACK 04 AUDIO
TITLE “Human”
PERFORMER “Metallica”
INDEX 01 16:09:62
TRACK 05 AUDIO
TITLE “Wherever I May Roam”
PERFORMER “Metallica”
INDEX 01 20:29:47
TRACK 06 AUDIO
TITLE “Outlaw Torn”
PERFORMER “Metallica”
INDEX 01 27:31:07
TRACK 07 AUDIO
TITLE “Sad But True”
PERFORMER “Metallica”
INDEX 01 37:30:00
TRACK 08 AUDIO
TITLE “One”
PERFORMER “Metallica”
INDEX 01 43:16:20
TRACK 09 AUDIO
TITLE “Enter Sandman”
PERFORMER “Metallica”
INDEX 01 51:09:25
TRACK 10 AUDIO
TITLE “Battery”
PERFORMER “Metallica”
INDEX 01 58:48:35


Leave a Reply

Your email address will not be published. Required fields are marked *

Enter the text from the image below
 

This site uses Akismet to reduce spam. Learn how your comment data is processed.