Metallica – S&M (2 CD) (Limited Japanese Edition)




No Cover available

Artist: Metallica
Year: 1999/2010
Genre: Rock
Notes: Discogs
Add. Notes: Limited Japanese Edition
Watch Songs on: YouTube
Cover incl.: Yes
Encoder: FLAC
Bitrate: ~1000 kBit/s (44.1 kHz/16 Bit/s)
Log & Cue incl.: Yes/Yes
Size: 1012,2 MB
Password: “slam” (without ” “)


All Downloads/Hosters are compatible

Download 1
KatFile.com
Turbobit.net
FileFactory.com
Rapidgator.net
Download 2
KatFile.com
Turbobit.net
FileFactory.com
Rapidgator.net

Tracklist:

1-01 - The Ecstasy Of Gold - 2:30
1-02 - The Call Of Ktulu - 9:34
1-03 - Master Of Puppets - 8:54
1-04 - Of Wolf And Man - 4:18
1-05 - The Thing That Should Not Be - 7:26
1-06 - Fuel - 4:36
1-07 - The Memory Remains - 4:42
1-08 - No Leaf Clover - 5:43
1-09 - Hero Of The Day - 4:44
1-10 - Devil's Dance - 5:26
1-11 - Bleeding Me - 9:02
2-01 - Nothing Else Matters - 6:47
2-02 - Until It Sleeps - 4:29
2-03 - For Whom The Bell Tolls - 4:52
2-04 - - Human - 4:19
2-05 - Wherever I May Roam - 7:01
2-06 - Outlaw Torn - 9:58
2-07 - Sad But True - 5:46
2-08 - One - 7:53
2-09 - Enter Sandman - 7:39
2-10 - Battery - 7:25

EAC-Log, CUE-Sheed & NFO:

Click to open spoiler
Exact Audio Copy V0.99 prebeta 5 from 4. May 2009

EAC extraction logfile from 10. October 2013, 16:11

Metallica / S&M (Disc 1) [SHM-CD, UICY-94672]

Used drive : PLEXTOR DVDR PX-760A Adapter: 0 ID: 0

Read mode : Secure
Utilize accurate stream : Yes
Defeat audio cache : Yes
Make use of C2 pointers : No

Read offset correction : 30
Overread into Lead-In and Lead-Out : No
Fill up missing offset samples with silence : Yes
Delete leading and trailing silent blocks : No
Null samples used in CRC calculations : Yes
Used interface : Native Win32 interface for Win NT & 2000

Used output format : User Defined Encoder
Selected bitrate : 1024 kBit/s
Quality : High
Add ID3 tag : No
Command line compressor : C:\Program Files (x86)\Exact Audio Copy\Flac\flac.exe
Additional command line options : -8 -V %s

TOC of the extracted CD

Track | Start | Length | Start sector | End sector
———————————————————
1 | 0:00.00 | 2:30.45 | 0 | 11294
2 | 2:30.45 | 9:34.20 | 11295 | 54364
3 | 12:04.65 | 8:54.58 | 54365 | 94472
4 | 20:59.48 | 4:18.65 | 94473 | 113887
5 | 25:18.38 | 7:26.50 | 113888 | 147387
6 | 32:45.13 | 4:35.67 | 147388 | 168079
7 | 37:21.05 | 4:42.28 | 168080 | 189257
8 | 42:03.33 | 5:43.15 | 189258 | 214997
9 | 47:46.48 | 4:44.47 | 214998 | 236344
10 | 52:31.20 | 5:26.00 | 236345 | 260794
11 | 57:57.20 | 9:01.48 | 260795 | 301417

Range status and errors

Selected range

Filename D:\bki71\Metallica\Metallica – S&M (Disc 1) [SHM-CD, UICY-94672].wav

Peak level 100.0 %
Range quality 100.0 %
Test CRC CBB5C554
Copy CRC CBB5C554
Copy OK

No errors occurred

AccurateRip summary

Track 1 accurately ripped (confidence 4) [F9BB336A]
Track 2 accurately ripped (confidence 4) [5F559262]
Track 3 accurately ripped (confidence 4) [5CF20C7E]
Track 4 accurately ripped (confidence 4) [F63F7747]
Track 5 accurately ripped (confidence 4) [63FF1F71]
Track 6 accurately ripped (confidence 4) [211BED1D]
Track 7 accurately ripped (confidence 4) [74B8035D]
Track 8 accurately ripped (confidence 4) [66244B75]
Track 9 accurately ripped (confidence 4) [C539740D]
Track 10 accurately ripped (confidence 4) [46AF09CE]
Track 11 accurately ripped (confidence 4) [CDB916C2]

All tracks accurately ripped

End of status report

Exact Audio Copy V0.99 prebeta 5 from 4. May 2009

EAC extraction logfile from 10. October 2013, 13:41

Metallica / S&M (Disc 2) [SHM-CD, UICY-94673]

Used drive : PLEXTOR DVDR PX-760A Adapter: 0 ID: 0

Read mode : Secure
Utilize accurate stream : Yes
Defeat audio cache : Yes
Make use of C2 pointers : No

Read offset correction : 30
Overread into Lead-In and Lead-Out : No
Fill up missing offset samples with silence : Yes
Delete leading and trailing silent blocks : No
Null samples used in CRC calculations : Yes
Used interface : Native Win32 interface for Win NT & 2000

Used output format : User Defined Encoder
Selected bitrate : 1024 kBit/s
Quality : High
Add ID3 tag : No
Command line compressor : C:\Program Files (x86)\Exact Audio Copy\Flac\flac.exe
Additional command line options : -8 -V %s

TOC of the extracted CD

Track | Start | Length | Start sector | End sector
———————————————————
1 | 0:00.00 | 6:47.58 | 0 | 30582
2 | 6:47.58 | 4:29.72 | 30583 | 50829
3 | 11:17.55 | 4:52.13 | 50830 | 72742
4 | 16:09.68 | 4:19.60 | 72743 | 92227
5 | 20:29.53 | 7:01.35 | 92228 | 123837
6 | 27:31.13 | 9:58.67 | 123838 | 168754
7 | 37:30.05 | 5:46.20 | 168755 | 194724
8 | 43:16.25 | 7:53.05 | 194725 | 230204
9 | 51:09.30 | 7:39.10 | 230205 | 264639
10 | 58:48.40 | 7:24.51 | 264640 | 297990

Range status and errors

Selected range

Filename D:\bki71\Metallica\Metallica – S&M (Disc 2) [SHM-CD, UICY-94673].wav

Peak level 100.0 %
Range quality 100.0 %
Test CRC 1757733D
Copy CRC 1757733D
Copy OK

No errors occurred

AccurateRip summary

Track 1 accurately ripped (confidence 4) [1B649A2E]
Track 2 accurately ripped (confidence 4) [7C361E67]
Track 3 accurately ripped (confidence 4) [74AF7AF8]
Track 4 accurately ripped (confidence 4) [4518916B]
Track 5 accurately ripped (confidence 4) [35EBDF9B]
Track 6 accurately ripped (confidence 4) [420D4FA7]
Track 7 accurately ripped (confidence 4) [6EF7E40C]
Track 8 accurately ripped (confidence 4) [880ECADA]
Track 9 accurately ripped (confidence 4) [F3E39D86]
Track 10 accurately ripped (confidence 4) [0CE3ECC1]

All tracks accurately ripped

End of status report

REM GENRE Metal
REM DATE 1999
REM DISCID 960FB20B
REM COMMENT “ExactAudioCopy v0.99pb5”
PERFORMER “Metallica”
TITLE “S&M (Disc 1) [SHM-CD, UICY-94672]”
FILE “Metallica – S&M (Disc 1) [SHM-CD, UICY-94672].flac” WAVE
TRACK 01 AUDIO
TITLE “The Ecstasy Of Gold”
PERFORMER “Metallica”
INDEX 01 00:00:00
TRACK 02 AUDIO
TITLE “The Call Of The Ktulu”
PERFORMER “Metallica”
INDEX 01 02:30:45
TRACK 03 AUDIO
TITLE “Master Of Puppets”
PERFORMER “Metallica”
INDEX 01 12:04:65
TRACK 04 AUDIO
TITLE “Of Wolf And Man”
PERFORMER “Metallica”
INDEX 01 20:59:48
TRACK 05 AUDIO
TITLE “The Thing That Should Not Be”
PERFORMER “Metallica”
INDEX 01 25:18:38
TRACK 06 AUDIO
TITLE “Fuel”
PERFORMER “Metallica”
INDEX 01 32:45:13
TRACK 07 AUDIO
TITLE “The Memory Remains”
PERFORMER “Metallica”
INDEX 01 37:21:05
TRACK 08 AUDIO
TITLE “No Leaf Clover”
PERFORMER “Metallica”
INDEX 01 42:03:33
TRACK 09 AUDIO
TITLE “Hero Of The Day”
PERFORMER “Metallica”
INDEX 01 47:46:48
TRACK 10 AUDIO
TITLE “Devil’s Dance”
PERFORMER “Metallica”
INDEX 01 52:31:20
TRACK 11 AUDIO
TITLE “Bleeding Me”
PERFORMER “Metallica”
INDEX 01 57:57:20

REM GENRE Metal
REM DATE 1999
REM DISCID 850F850A
REM COMMENT “ExactAudioCopy v0.99pb5”
PERFORMER “Metallica”
TITLE “S&M (Disc 2) [SHM-CD, UICY-94673]”
FILE “Metallica – S&M (Disc 2) [SHM-CD, UICY-94673].flac” WAVE
TRACK 01 AUDIO
TITLE “Nothing Else Matters”
PERFORMER “Metallica”
INDEX 01 00:00:00
TRACK 02 AUDIO
TITLE “Until It Sleeps”
PERFORMER “Metallica”
INDEX 01 06:47:58
TRACK 03 AUDIO
TITLE “For Whom The Bell Tolls”
PERFORMER “Metallica”
INDEX 01 11:17:55
TRACK 04 AUDIO
TITLE “Human”
PERFORMER “Metallica”
INDEX 01 16:09:68
TRACK 05 AUDIO
TITLE “Wherever I May Roam”
PERFORMER “Metallica”
INDEX 01 20:29:53
TRACK 06 AUDIO
TITLE “Outlaw Torn”
PERFORMER “Metallica”
INDEX 01 27:31:13
TRACK 07 AUDIO
TITLE “Sad But True”
PERFORMER “Metallica”
INDEX 01 37:30:05
TRACK 08 AUDIO
TITLE “One”
PERFORMER “Metallica”
INDEX 01 43:16:25
TRACK 09 AUDIO
TITLE “Enter Sandman”
PERFORMER “Metallica”
INDEX 01 51:09:30
TRACK 10 AUDIO
TITLE “Battery”
PERFORMER “Metallica”
INDEX 01 58:48:40


Leave a Reply

Your email address will not be published. Required fields are marked *

This site uses Akismet to reduce spam. Learn how your comment data is processed.