Metallica – Six Feet Down Under




Artist: Metallica
Year: 2010
Genre: Metal
Notes: Discogs
Encoder: FLAC
Bitrate: ~900 kBit/s (VBR)
Size: 344,66 MB
Hoster: Share-Online
Password: “slam” (without ” “)


Tracklist:

Eye Of The Beholder 6:32
...And Justice For All 9:53
Through The Never 3:40
The Unforgiven 7:02
Low Man's Lyric (Acoustic) 7:00
Devil's Dance 5:49
Frantic 7:46
Fight Fire With Fire 5:09

Click to open spoiler
Exact Audio Copy V0.99 prebeta 5 from 4. May 2009

EAC extraction logfile from 22. September 2010, 13:05

Metallica / Six Feet Down Under EP

Used drive : HL-DT-STDVDRAM GSA-H10N Adapter: 0 ID: 0

Read mode : Secure
Utilize accurate stream : Yes
Defeat audio cache : Yes
Make use of C2 pointers : No

Read offset correction : 667
Overread into Lead-In and Lead-Out : No
Fill up missing offset samples with silence : Yes
Delete leading and trailing silent blocks : No
Null samples used in CRC calculations : Yes
Used interface : Native Win32 interface for Win NT & 2000
Gap handling : Appended to previous track

Used output format : User Defined Encoder
Selected bitrate : 32 kBit/s
Quality : High
Add ID3 tag : No
Command line compressor : D:\Program Files\Exact Audio Copy\FLAC\FLAC.EXE
Additional command line options : -8 -V -T “INFO=” -T “TDR=R” -T “ARTIST=%a” -T “TITLE=%t” -T “ALBUM=%g” -T “DATE=%y” -T “TRACKNUMBER=%n” -T “TOTALTRACKS=%x” -T “GENRE=%m” -T “ALBUMARTIST=%v” -T “ALBUM ARTIST=%v” -T “COMMENT=EAC Secure Mode, Test & Copy, Ac

TOC of the extracted CD

Track | Start | Length | Start sector | End sector
———————————————————
1 | 0:00.10 | 6:32.35 | 10 | 29444
2 | 6:32.45 | 9:52.51 | 29445 | 73895
3 | 16:25.21 | 3:40.01 | 73896 | 90396
4 | 20:05.22 | 7:01.54 | 90397 | 122025
5 | 27:07.01 | 7:00.15 | 122026 | 153540
6 | 34:07.16 | 5:48.58 | 153541 | 179698
7 | 39:55.74 | 7:45.59 | 179699 | 214632
8 | 47:41.58 | 5:09.09 | 214633 | 237816

Track 1

Filename M:\Metallica – Six Feet Down Under EP (2010) [FLAC]\01 – Eye Of The Beholder (Melbourne ’89).wav

Pre-gap length 0:00:02.13

Peak level 100.0 %
Track quality 99.9 %
Test CRC 7552AC8C
Copy CRC 7552AC8C
Track not present in AccurateRip database
Copy OK

Track 2

Filename M:\Metallica – Six Feet Down Under EP (2010) [FLAC]\02 – …And Justice For All (Melbourne ’89).wav

Pre-gap length 0:00:01.68

Peak level 100.0 %
Track quality 100.0 %
Test CRC DE954DC9
Copy CRC DE954DC9
Track not present in AccurateRip database
Copy OK

Track 3

Filename M:\Metallica – Six Feet Down Under EP (2010) [FLAC]\03 – Through The Never (Perth ’93).wav

Pre-gap length 0:00:00.93

Peak level 100.0 %
Track quality 100.0 %
Test CRC 1EFA234D
Copy CRC 1EFA234D
Track not present in AccurateRip database
Copy OK

Track 4

Filename M:\Metallica – Six Feet Down Under EP (2010) [FLAC]\04 – The Unforgiven (Melbourne ’93).wav

Pre-gap length 0:00:01.84

Peak level 100.0 %
Track quality 99.9 %
Test CRC 10669C7C
Copy CRC 10669C7C
Track not present in AccurateRip database
Copy OK

Track 5

Filename M:\Metallica – Six Feet Down Under EP (2010) [FLAC]\05 – Low Man’s Lyric {Accoustic} (Perth ’98).wav

Pre-gap length 0:00:01.21

Peak level 96.6 %
Track quality 100.0 %
Test CRC 349A9AE8
Copy CRC 349A9AE8
Track not present in AccurateRip database
Copy OK

Track 6

Filename M:\Metallica – Six Feet Down Under EP (2010) [FLAC]\06 – Devil’s Dance (Perth ’98).wav

Pre-gap length 0:00:01.78

Peak level 98.3 %
Track quality 100.0 %
Test CRC 51C027A3
Copy CRC 51C027A3
Track not present in AccurateRip database
Copy OK

Track 7

Filename M:\Metallica – Six Feet Down Under EP (2010) [FLAC]\07 – Frantic (Sydney ’04).wav

Pre-gap length 0:00:01.72

Peak level 100.0 %
Track quality 100.0 %
Test CRC F1AA2205
Copy CRC F1AA2205
Track not present in AccurateRip database
Copy OK

Track 8

Filename M:\Metallica – Six Feet Down Under EP (2010) [FLAC]\08 – Fight Fire With Fire (Brisbane ’04).wav

Pre-gap length 0:00:01.60

Peak level 100.0 %
Track quality 100.0 %
Test CRC A6755B50
Copy CRC A6755B50
Track not present in AccurateRip database
Copy OK

None of the tracks are present in the AccurateRip database

No errors occurred

End of status report

———————-

REM GENRE Metal
REM DATE 2010
REM DISCID 7D0C6208
REM COMMENT “ExactAudioCopy v0.99pb5”
PERFORMER “Metallica”
TITLE “Six Feet Down Under EP”
FILE “01 – Eye Of The Beholder (Melbourne ’89).wav” WAVE
TRACK 01 AUDIO
TITLE “Eye Of The Beholder (Melbourne ’89)”
PERFORMER “Metallica”
FLAGS DCP
PREGAP 00:00:10
INDEX 01 00:00:00
TRACK 02 AUDIO
TITLE “…And Justice For All (Melbourne ’89)”
PERFORMER “Metallica”
FLAGS DCP
INDEX 00 06:30:59
FILE “02 – …And Justice For All (Melbourne ’89).wav” WAVE
INDEX 01 00:00:00
TRACK 03 AUDIO
TITLE “Through The Never (Perth ’93) ”
PERFORMER “Metallica”
FLAGS DCP
INDEX 00 09:51:56
FILE “03 – Through The Never (Perth ’93).wav” WAVE
INDEX 01 00:00:00
TRACK 04 AUDIO
TITLE “The Unforgiven (Melbourne ’93)”
PERFORMER “Metallica”
FLAGS DCP
INDEX 00 03:38:13
FILE “04 – The Unforgiven (Melbourne ’93).wav” WAVE
INDEX 01 00:00:00
TRACK 05 AUDIO
TITLE “Low Man’s Lyric {Accoustic} (Perth ’98)”
PERFORMER “Metallica”
FLAGS DCP
INDEX 00 07:00:38
FILE “05 – Low Man’s Lyric {Accoustic} (Perth ’98).wav” WAVE
INDEX 01 00:00:00
TRACK 06 AUDIO
TITLE “Devil’s Dance (Perth ’98)”
PERFORMER “Metallica”
FLAGS DCP
INDEX 00 06:58:31
FILE “06 – Devil’s Dance (Perth ’98).wav” WAVE
INDEX 01 00:00:00
TRACK 07 AUDIO
TITLE “Frantic (Sydney ’04)”
PERFORMER “Metallica”
FLAGS DCP
INDEX 00 05:47:04
FILE “07 – Frantic (Sydney ’04).wav” WAVE
INDEX 01 00:00:00
TRACK 08 AUDIO
TITLE “Fight Fire With Fire (Brisbane ’04)”
PERFORMER “Metallica”
FLAGS DCP
INDEX 00 07:44:14
FILE “08 – Fight Fire With Fire (Brisbane ’04).wav” WAVE
INDEX 01 00:00:00

Leave a Reply

Your email address will not be published. Required fields are marked *

This site uses Akismet to reduce spam. Learn how your comment data is processed.