Metallica – Ride The Lightning (Reissue)




Artist: Metallica
Year: 1984/1986
Genre: Metal
Notes: Discogs
Add. Notes: Reissue
Cover incl.: Yes
Encoder: FLAC
Bitrate: ~900 kBit/s (44.1 kHz/16 Bit/s)
Log & Cue incl.: Yes
Size: 325,49 MB
Password: “slam” (without ” “)


All Downloads/Hosters are compatible

Download 1
KatFile.com
Turbobit.net
FileFactory.com
Rapidgator.net
Download 2
KatFile.com
Turbobit.net
FileFactory.com
Rapidgator.net

Tracklist:

1 - Fight Fire With Fire - 4:44
2 - Ride The Lightning - 6:36
3 - For Whom The Bell Tolls - 5:10
4 - Fade To Black - 6:56
5 - Trapped Under Ice - 4:03
6 - Escape - 4:23
7 - Creeping Death - 6:36
8 - The Call Of Ktulu - 8:52

EAC-Log, CUE-Sheed & NFO:

Click to open spoiler
Exact Audio Copy V0.99 prebeta 5 from 4. May 2009

EAC extraction logfile from 6. June 2013, 14:13

Metallica / Ride The Lightning (France CD MFN 27)

Used drive : PLEXTOR DVDR PX-760A Adapter: 0 ID: 0

Read mode : Secure
Utilize accurate stream : Yes
Defeat audio cache : Yes
Make use of C2 pointers : No

Read offset correction : 30
Overread into Lead-In and Lead-Out : No
Fill up missing offset samples with silence : Yes
Delete leading and trailing silent blocks : No
Null samples used in CRC calculations : Yes
Used interface : Native Win32 interface for Win NT & 2000

Used output format : User Defined Encoder
Selected bitrate : 1024 kBit/s
Quality : High
Add ID3 tag : No
Command line compressor : C:\Program Files (x86)\Exact Audio Copy\Flac\flac.exe
Additional command line options : -8 -V %s

TOC of the extracted CD

Track | Start | Length | Start sector | End sector
———————————————————
1 | 0:00.33 | 4:46.37 | 33 | 21519
2 | 4:46.70 | 6:37.35 | 21520 | 51329
3 | 11:24.30 | 5:10.28 | 51330 | 74607
4 | 16:34.58 | 6:51.27 | 74608 | 105459
5 | 23:26.10 | 4:04.23 | 105460 | 123782
6 | 27:30.33 | 4:24.02 | 123783 | 143584
7 | 31:54.35 | 6:36.30 | 143585 | 173314
8 | 38:30.65 | 8:54.10 | 173315 | 213374

Range status and errors

Selected range

Filename D:\bki71\Metallica\Metallica – Ride The Lightning (France CD MFN 27).wav

Peak level 81.7 %
Range quality 100.0 %
Test CRC 81EBE899
Copy CRC 81EBE899
Copy OK

No errors occurred

AccurateRip summary

Track 1 accurately ripped (confidence 29) [459D468E]
Track 2 accurately ripped (confidence 27) [77588BA8]
Track 3 accurately ripped (confidence 29) [35333E0A]
Track 4 accurately ripped (confidence 27) [8C943FA6]
Track 5 accurately ripped (confidence 30) [02C80B50]
Track 6 accurately ripped (confidence 29) [3DAB8FD2]
Track 7 accurately ripped (confidence 27) [9D3F054A]
Track 8 accurately ripped (confidence 24) [79897542]

All tracks accurately ripped

End of status report

REM GENRE “Thrash Metal”
REM DATE 1984
REM DISCID 740B1D08
REM COMMENT “ExactAudioCopy v0.99pb5”
PERFORMER “Metallica”
TITLE “Ride The Lightning (France CD MFN 27)”
FILE “Metallica – Ride The Lightning (France CD MFN 27).flac” WAVE
TRACK 01 AUDIO
TITLE “Fight Fire With Fire”
PERFORMER “Metallica”
INDEX 00 00:00:00
INDEX 01 00:00:33
TRACK 02 AUDIO
TITLE “Ride The Lightning”
PERFORMER “Metallica”
INDEX 01 04:46:70
TRACK 03 AUDIO
TITLE “For Whom The Bell Tolls”
PERFORMER “Metallica”
INDEX 01 11:24:30
TRACK 04 AUDIO
TITLE “Fade To Black”
PERFORMER “Metallica”
INDEX 01 16:34:58
TRACK 05 AUDIO
TITLE “Trapped Under Ice”
PERFORMER “Metallica”
INDEX 01 23:26:10
TRACK 06 AUDIO
TITLE “Escape”
PERFORMER “Metallica”
INDEX 01 27:30:33
TRACK 07 AUDIO
TITLE “Creeping Death”
PERFORMER “Metallica”
INDEX 01 31:54:35
TRACK 08 AUDIO
TITLE “The Call Of Ktulu”
PERFORMER “Metallica”
INDEX 01 38:30:65


Leave a Reply

Your email address will not be published. Required fields are marked *

Enter the text from the image below
 

This site uses Akismet to reduce spam. Learn how your comment data is processed.