Metallica – Ride The Lightning (Remastered)




Artist: Metallica
Year: 1984/1995
Genre: Metal
Notes: Discogs
Add. Notes: Remastered
Cover incl.: Yes
Encoder: FLAC
Bitrate: ~1000 kBit/s (44.1 kHz/16 Bit/s)
Log & Cue incl.: Yes
Size: 356,7 MB
Password: “slam” (without ” “)


All Downloads/Hosters are compatible

Download 1
KatFile.com
Turbobit.net
FileFactory.com
Rapidgator.net
Download 2
KatFile.com
Turbobit.net
FileFactory.com
Rapidgator.net

Tracklist:

1 - Fight Fire With Fire - 4:44
2 - Ride The Lightning - 6:37
3 - For Whom The Bell Tolls - 5:09
4 - Fade To Black - 6:57
5 - Trapped Under Ice - 4:04
6 - Escape - 4:23
7 - Creeping Death - 6:36
8 - The Call Of Ktulu - 8:53

EAC-Log, CUE-Sheed & NFO:

Click to open spoiler
Exact Audio Copy V0.99 prebeta 5 from 4. May 2009

EAC extraction logfile from 16. October 2013, 11:54

Metallica / Ride The Lightning (1995 USA Elektra 9 60396-2)

Used drive : PIONEER DVD-RW DVR-215 Adapter: 5 ID: 0

Read mode : Secure
Utilize accurate stream : Yes
Defeat audio cache : Yes
Make use of C2 pointers : No

Read offset correction : 48
Overread into Lead-In and Lead-Out : No
Fill up missing offset samples with silence : Yes
Delete leading and trailing silent blocks : No
Null samples used in CRC calculations : Yes
Used interface : Native Win32 interface for Win NT & 2000

Used output format : User Defined Encoder
Selected bitrate : 1024 kBit/s
Quality : High
Add ID3 tag : No
Command line compressor : C:\Program Files (x86)\Exact Audio Copy\Flac\flac.exe
Additional command line options : -8 -V %s

TOC of the extracted CD

Track | Start | Length | Start sector | End sector
———————————————————
1 | 0:00.00 | 4:45.00 | 0 | 21374
2 | 4:45.00 | 6:36.70 | 21375 | 51144
3 | 11:21.70 | 5:09.70 | 51145 | 74389
4 | 16:31.65 | 6:57.30 | 74390 | 105694
5 | 23:29.20 | 4:04.12 | 105695 | 124006
6 | 27:33.32 | 4:23.68 | 124007 | 143799
7 | 31:57.25 | 6:36.05 | 143800 | 173504
8 | 38:33.30 | 8:53.37 | 173505 | 213516

Range status and errors

Selected range

Filename D:\bki71\Metallica\Metallica – Ride The Lightning (1995 USA Elektra 9 60396-2).wav

Peak level 100.0 %
Range quality 100.0 %
Test CRC EC8C0BC4
Copy CRC EC8C0BC4
Copy OK

No errors occurred

AccurateRip summary

Track 1 accurately ripped (confidence 36) [4DE2BE92]
Track 2 accurately ripped (confidence 37) [21E32E8D]
Track 3 accurately ripped (confidence 37) [728DE1E4]
Track 4 accurately ripped (confidence 36) [4A08766F]
Track 5 accurately ripped (confidence 35) [57EB731F]
Track 6 accurately ripped (confidence 36) [7B45A729]
Track 7 accurately ripped (confidence 37) [34BB6BF8]
Track 8 accurately ripped (confidence 35) [E12BFB61]

All tracks accurately ripped

End of status report

REM GENRE “Thrash Metal”
REM DATE 1984
REM DISCID 700B1E08
REM COMMENT “ExactAudioCopy v0.99pb5”
PERFORMER “Metallica”
TITLE “Ride The Lightning (1995 USA Elektra 9 60396-2)”
FILE “Metallica – Ride The Lightning (1995 USA Elektra 9 60396-2).flac” WAVE
TRACK 01 AUDIO
TITLE “Fight Fire With Fire”
PERFORMER “Metallica”
INDEX 01 00:00:00
TRACK 02 AUDIO
TITLE “Ride The Lightning”
PERFORMER “Metallica”
INDEX 01 04:45:00
TRACK 03 AUDIO
TITLE “For Whom The Bell Tolls”
PERFORMER “Metallica”
INDEX 01 11:21:70
TRACK 04 AUDIO
TITLE “Fade To Black”
PERFORMER “Metallica”
INDEX 01 16:31:65
TRACK 05 AUDIO
TITLE “Trapped Under Ice”
PERFORMER “Metallica”
INDEX 01 23:29:20
TRACK 06 AUDIO
TITLE “Escape”
PERFORMER “Metallica”
INDEX 01 27:33:32
TRACK 07 AUDIO
TITLE “Creeping Death”
PERFORMER “Metallica”
INDEX 01 31:57:25
TRACK 08 AUDIO
TITLE “The Call Of Ktulu”
PERFORMER “Metallica”
INDEX 01 38:33:30


Leave a Reply

Your email address will not be published. Required fields are marked *

This site uses Akismet to reduce spam. Learn how your comment data is processed.