Metallica – Ride The Lightning (Japanese Edition)




Artist: Metallica
Year: 1984/2010
Genre: Metal
Notes: Discogs
Add. Notes: Japanese Edition
Cover incl.: Yes
Encoder: FLAC
Bitrate: ~1000 kBit/s (44.1 kHz/16 Bit/s)
Log & Cue incl.: Yes
Size: 359,5 MB
Password: “slam” (without ” “)


All Downloads/Hosters are compatible

Download 1
KatFile.com
Turbobit.net
FileFactory.com
Rapidgator.net
Download 2
KatFile.com
Turbobit.net
FileFactory.com
Rapidgator.net

Tracklist:

1 - Fight Fire With Fire - 4:44
2 - Ride The Lightning - 6:36
3 - For Whom The Bell Tolls - 5:10
4 - Fade To Black - 6:56
5 - Trapped Under Ice - 4:03
6 - Escape - 4:23
7 - Creeping Death - 6:36
8 - The Call Of Ktulu - 8:52

EAC-Log, CUE-Sheed & NFO:

Click to open spoiler
Exact Audio Copy V0.99 prebeta 5 from 4. May 2009

EAC extraction logfile from 29. March 2012, 19:27

Metallica / Ride The Lightning (SHM-CD, UICY-94663)

Used drive : PLEXTOR DVDR PX-760A Adapter: 0 ID: 0

Read mode : Secure
Utilize accurate stream : Yes
Defeat audio cache : Yes
Make use of C2 pointers : No

Read offset correction : 30
Overread into Lead-In and Lead-Out : No
Fill up missing offset samples with silence : Yes
Delete leading and trailing silent blocks : No
Null samples used in CRC calculations : Yes
Used interface : Native Win32 interface for Win NT & 2000

Used output format : User Defined Encoder
Selected bitrate : 1024 kBit/s
Quality : High
Add ID3 tag : No
Command line compressor : C:\Program Files (x86)\Exact Audio Copy\Flac\flac.exe
Additional command line options : -8 -V %s

TOC of the extracted CD

Track | Start | Length | Start sector | End sector
———————————————————
1 | 0:00.00 | 4:45.31 | 0 | 21405
2 | 4:45.31 | 6:37.66 | 21406 | 51246
3 | 11:23.22 | 5:11.55 | 51247 | 74626
4 | 16:35.02 | 6:55.38 | 74627 | 105789
5 | 23:30.40 | 4:04.50 | 105790 | 124139
6 | 27:35.15 | 4:24.32 | 124140 | 143971
7 | 31:59.47 | 6:37.00 | 143972 | 173746
8 | 38:36.47 | 8:55.26 | 173747 | 213897

Range status and errors

Selected range

Filename E:\bki71\Metallica\Metallica – Ride The Lightning (SHM-CD, UICY-94663).wav

Peak level 99.9 %
Range quality 100.0 %
Test CRC 7ABE5783
Copy CRC 7ABE5783
Copy OK

No errors occurred

AccurateRip summary

Track 1 accurately ripped (confidence 5) [3E91BE66]
Track 2 accurately ripped (confidence 5) [420E1F2D]
Track 3 accurately ripped (confidence 5) [878FFB26]
Track 4 accurately ripped (confidence 5) [179C9390]
Track 5 accurately ripped (confidence 5) [49B90FA5]
Track 6 accurately ripped (confidence 4) [0684C8FA]
Track 7 accurately ripped (confidence 5) [48052E08]
Track 8 accurately ripped (confidence 5) [878C19AA]

All tracks accurately ripped

End of status report

REM GENRE “Thrash Metal”
REM DATE 1984
REM DISCID 750B2308
REM COMMENT “ExactAudioCopy v0.99pb5”
PERFORMER “Metallica”
TITLE “Ride The Lightning (SHM-CD, UICY-94663)”
FILE “Metallica – Ride The Lightning (SHM-CD, UICY-94663).flac” WAVE
TRACK 01 AUDIO
TITLE “Fight Fire With Fire”
PERFORMER “Metallica”
INDEX 01 00:00:00
TRACK 02 AUDIO
TITLE “Ride The Lightning”
PERFORMER “Metallica”
INDEX 01 04:45:31
TRACK 03 AUDIO
TITLE “For Whom The Bell Tolls”
PERFORMER “Metallica”
INDEX 00 11:21:63
INDEX 01 11:23:22
TRACK 04 AUDIO
TITLE “Fade To Black”
PERFORMER “Metallica”
INDEX 00 16:32:35
INDEX 01 16:35:02
TRACK 05 AUDIO
TITLE “Trapped Under Ice”
PERFORMER “Metallica”
INDEX 00 23:28:54
INDEX 01 23:30:40
TRACK 06 AUDIO
TITLE “Escape”
PERFORMER “Metallica”
INDEX 00 27:34:69
INDEX 01 27:35:15
TRACK 07 AUDIO
TITLE “Creeping Death”
PERFORMER “Metallica”
INDEX 00 31:58:39
INDEX 01 31:59:47
TRACK 08 AUDIO
TITLE “The Call Of Ktulu”
PERFORMER “Metallica”
INDEX 01 38:36:47


Leave a Reply

Your email address will not be published. Required fields are marked *

Enter the text from the image below
 

This site uses Akismet to reduce spam. Learn how your comment data is processed.