Metallica – Ride The Lightning (1st press) (Japanese Edition)




Artist: Metallica
Year: 1984/1988
Genre: Metal
Notes: Discogs
Add. Notes: Japanese Edition
Cover incl.: Yes
Encoder: FLAC
Bitrate: ~900 kBit/s (44.1 kHz/16 Bit/s)
Log & Cue incl.: Yes
Size: 358,4 MB
Password: “slam” (without ” “)


All Downloads/Hosters are compatible

Download 1
KatFile.com
Turbobit.net
FileFactory.com
Rapidgator.net
Download 2
KatFile.com
Turbobit.net
FileFactory.com
Rapidgator.net

Tracklist:

1 - Fight Fire With Fire - 4:45
2 - Ride The Lightning - 6:36
3 - For Whom The Bell Tolls - 5:09
4 - Fade To Black - 6:57
5 - Trapped Under Ice - 4:04
6 - Escape - 4:23
7 - Creeping Death - 6:36
8 - The Call Of Ktulu - 8:53

EAC-Log, CUE-Sheed & NFO:

Click to open spoiler
Exact Audio Copy V0.99 prebeta 4 from 23. January 2008

EAC extraction logfile from 2. June 2011, 10:16

Metallica / Ride The Lightning (25DP 5340)

Used drive : PLEXTOR DVDR PX-760A Adapter: 0 ID: 0

Read mode : Secure
Utilize accurate stream : Yes
Defeat audio cache : Yes
Make use of C2 pointers : No

Read offset correction : 30
Overread into Lead-In and Lead-Out : No
Fill up missing offset samples with silence : Yes
Delete leading and trailing silent blocks : No
Null samples used in CRC calculations : Yes
Used interface : Installed external ASPI interface

Used output format : Internal WAV Routines
Sample format : 44.100 Hz; 16 Bit; Stereo

TOC of the extracted CD

Track | Start | Length | Start sector | End sector
———————————————————
1 | 0:00.00 | 4:45.17 | 0 | 21391
2 | 4:45.17 | 6:37.45 | 21392 | 51211
3 | 11:22.62 | 5:11.33 | 51212 | 74569
4 | 16:34.20 | 6:53.02 | 74570 | 105546
5 | 23:27.22 | 4:04.28 | 105547 | 123874
6 | 27:31.50 | 4:24.10 | 123875 | 143684
7 | 31:55.60 | 6:36.52 | 143685 | 173436
8 | 38:32.37 | 8:54.58 | 173437 | 213544

Range status and errors

Selected range

Filename D:\bki71\Metallica\Studio Albums\1984 – Ride The Lightning\Metallica – Ride The Lightning (25DP 5340).wav

Peak level 100.0 %
Range quality 100.0 %
Test CRC A40E8E88
Copy CRC A40E8E88
Copy OK

No errors occurred

AccurateRip summary

Track 1 accurately ripped (confidence 12) [4BE3F647]
Track 2 accurately ripped (confidence 12) [0564BC69]
Track 3 accurately ripped (confidence 12) [96653A3D]
Track 4 accurately ripped (confidence 12) [E56DFB4C]
Track 5 accurately ripped (confidence 12) [D5001B35]
Track 6 accurately ripped (confidence 12) [151A8C64]
Track 7 accurately ripped (confidence 12) [7705827C]
Track 8 accurately ripped (confidence 12) [4663DAE9]

All tracks accurately ripped

End of status report

REM GENRE “Thrash Metal”
REM DATE 1984
REM DISCID 760B1F08
REM COMMENT “ExactAudioCopy v0.99pb4”
PERFORMER “Metallica”
TITLE “Ride The Lightning (25DP 5340)”
FILE “Metallica – Ride The Lightning (25DP 5340).flac” WAVE
TRACK 01 AUDIO
TITLE “Fight Fire With Fire”
PERFORMER “Metallica”
INDEX 01 00:00:00
TRACK 02 AUDIO
TITLE “Ride The Lightning”
PERFORMER “Metallica”
INDEX 01 04:45:17
TRACK 03 AUDIO
TITLE “For Whom The Bell Tolls”
PERFORMER “Metallica”
INDEX 01 11:22:62
TRACK 04 AUDIO
TITLE “Fade To Black”
PERFORMER “Metallica”
INDEX 01 16:34:20
TRACK 05 AUDIO
TITLE “Trapped Under Ice”
PERFORMER “Metallica”
INDEX 01 23:27:22
TRACK 06 AUDIO
TITLE “Escape”
PERFORMER “Metallica”
INDEX 01 27:31:50
TRACK 07 AUDIO
TITLE “Creeping Death”
PERFORMER “Metallica”
INDEX 01 31:55:60
TRACK 08 AUDIO
TITLE “The Call Of Ktulu”
PERFORMER “Metallica”
INDEX 01 38:32:37


Leave a Reply

Your email address will not be published. Required fields are marked *

This site uses Akismet to reduce spam. Learn how your comment data is processed.