Metallica – Reload




Artist: Metallica
Year: 1997/2013
Genre: Metal
Notes: Discogs
Add. Notes:
Cover incl.: Yes
Encoder: FLAC
Bitrate: ~900 kBit/s (44.1 kHz/16 Bit/s)
Log & Cue incl.: Yes
Size: 596,68 MB
Password: “slam” (without ” “)


All Downloads/Hosters are compatible

Download 1
Turbobit.net
Rapidgator.net
KatFile.com
UploadRar.com
Download 2
Turbobit.net
Rapidgator.net
KatFile.com
UploadRar.com

Tracklist:

1 - Fuel - 4:29
2 - The Memory Remains - 4:38
3 - Devil's Dance - 5:18
4 - The Unforgiven II - 6:36
5 - Better Than You - 5:21
6 - Slither - 5:12
7 - Carpe Diem Baby - 6:11
8 - Bad Seed - 4:05
9 - Where The Wild Things Are - 6:53
10 - Prince Charming - 6:04
11 - Low Man's Lyric - 7:36
12 - Attitude - 5:15
13 - Fixxxer - 8:14

EAC-Log, CUE-Sheed & NFO:

Click to open spoiler
Exact Audio Copy V1.1 from 23. June 2015

EAC extraction logfile from 25. November 2016, 20:25

Metallica / Reload (2013 Blackened BLCKND012-2)

Used drive : PIONEER DVD-RW DVR-215 Adapter: 1 ID: 0

Read mode : Secure
Utilize accurate stream : Yes
Defeat audio cache : Yes
Make use of C2 pointers : No

Read offset correction : 48
Overread into Lead-In and Lead-Out : No
Fill up missing offset samples with silence : Yes
Delete leading and trailing silent blocks : No
Null samples used in CRC calculations : Yes
Used interface : Native Win32 interface for Win NT & 2000

Used output format : User Defined Encoder
Selected bitrate : 1024 kBit/s
Quality : High
Add ID3 tag : No
Command line compressor : C:\Program Files (x86)\Exact Audio Copy\Flac\flac.exe
Additional command line options : -V -8 -T “Date=%year%” -T “Genre=%genre%” %source%

TOC of the extracted CD

Track | Start | Length | Start sector | End sector
———————————————————
1 | 0:00.32 | 4:29.55 | 32 | 20261
2 | 4:30.12 | 4:39.18 | 20262 | 41204
3 | 9:09.30 | 5:18.72 | 41205 | 65126
4 | 14:28.27 | 6:36.33 | 65127 | 94859
5 | 21:04.60 | 5:21.45 | 94860 | 118979
6 | 26:26.30 | 5:13.15 | 118980 | 142469
7 | 31:39.45 | 6:12.15 | 142470 | 170384
8 | 37:51.60 | 4:05.25 | 170385 | 188784
9 | 41:57.10 | 6:54.10 | 188785 | 219844
10 | 48:51.20 | 6:05.17 | 219845 | 247236
11 | 54:56.37 | 7:37.20 | 247237 | 281531
12 | 62:33.57 | 5:16.18 | 281532 | 305249
13 | 67:50.00 | 8:15.17 | 305250 | 342391

Range status and errors

Selected range

Filename F:\metallihead\Metallica\Metallica – Reload (2013 Blackened BLCKND012-2).wav

Peak level 100.0 %
Extraction speed 7.9 X
Range quality 100.0 %
Test CRC 8EA0F7A1
Copy CRC 8EA0F7A1
Copy OK

No errors occurred

AccurateRip summary

Track 1 accurately ripped (confidence 58) [880FD810] (AR v2)
Track 2 accurately ripped (confidence 58) [FA1966F4] (AR v2)
Track 3 accurately ripped (confidence 57) [C4E931E2] (AR v2)
Track 4 accurately ripped (confidence 58) [56049227] (AR v2)
Track 5 accurately ripped (confidence 56) [530093EE] (AR v2)
Track 6 accurately ripped (confidence 57) [E6596F3F] (AR v2)
Track 7 accurately ripped (confidence 57) [BFCFB3B6] (AR v2)
Track 8 accurately ripped (confidence 57) [A8668A38] (AR v2)
Track 9 accurately ripped (confidence 55) [7BF11C11] (AR v2)
Track 10 accurately ripped (confidence 57) [3609BE68] (AR v2)
Track 11 accurately ripped (confidence 57) [0808C027] (AR v2)
Track 12 accurately ripped (confidence 54) [E71C058D] (AR v2)
Track 13 accurately ripped (confidence 53) [C3FD9D99] (AR v2)

All tracks accurately ripped

End of status report

—- CUETools DB Plugin V2.1.6

[CTDB TOCID: VaoWzfLPkWJ5hddWoUt27BL5yW8-] found
Submit result: VaoWzfLPkWJ5hddWoUt27BL5yW8- has been confirmed
Track | CTDB Status
1 | (121/335) Accurately ripped
2 | (121/335) Accurately ripped
3 | (121/335) Accurately ripped
4 | (121/335) Accurately ripped
5 | (120/335) Accurately ripped
6 | (120/335) Accurately ripped
7 | (120/335) Accurately ripped
8 | (120/335) Accurately ripped
9 | (120/335) Accurately ripped
10 | (120/335) Accurately ripped
11 | (120/335) Accurately ripped
12 | (120/335) Accurately ripped
13 | (117/335) Accurately ripped

==== Log checksum 2B40CDA42D7D5C8928DC607D60800FB010692426912527D1C96E23885C450332 ====

REM GENRE “Thrash Metal”
REM DATE 1997
REM DISCID BE11D50D
REM COMMENT “ExactAudioCopy v1.1”
PERFORMER “Metallica”
TITLE “Reload (2013 Blackened BLCKND012-2)”
FILE “Metallica – Reload (2013 Blackened BLCKND012-2).flac” WAVE
TRACK 01 AUDIO
TITLE “Fuel”
PERFORMER “Metallica”
INDEX 00 00:00:00
INDEX 01 00:00:32
TRACK 02 AUDIO
TITLE “The Memory Remains”
PERFORMER “Metallica”
INDEX 01 04:30:12
TRACK 03 AUDIO
TITLE “Devil’s Dance”
PERFORMER “Metallica”
INDEX 01 09:09:30
TRACK 04 AUDIO
TITLE “The Unforgiven II”
PERFORMER “Metallica”
INDEX 01 14:28:27
TRACK 05 AUDIO
TITLE “Better Than You”
PERFORMER “Metallica”
INDEX 01 21:04:60
TRACK 06 AUDIO
TITLE “Slither”
PERFORMER “Metallica”
INDEX 01 26:26:30
TRACK 07 AUDIO
TITLE “Carpe Diem Baby”
PERFORMER “Metallica”
INDEX 01 31:39:45
TRACK 08 AUDIO
TITLE “Bad Seed”
PERFORMER “Metallica”
INDEX 01 37:51:60
TRACK 09 AUDIO
TITLE “Where the Wild Things Are”
PERFORMER “Metallica”
INDEX 01 41:57:10
TRACK 10 AUDIO
TITLE “Prince Charming”
PERFORMER “Metallica”
INDEX 00 48:50:32
INDEX 01 48:51:20
TRACK 11 AUDIO
TITLE “Low Man’s Lyric”
PERFORMER “Metallica”
INDEX 00 54:55:35
INDEX 01 54:56:37
TRACK 12 AUDIO
TITLE “Attitude”
PERFORMER “Metallica”
INDEX 00 62:32:57
INDEX 01 62:33:57
TRACK 13 AUDIO
TITLE “Fixxxer”
PERFORMER “Metallica”
INDEX 01 67:50:00


Leave a Reply

Your email address will not be published. Required fields are marked *

Enter the text from the image below
 

This site uses Akismet to reduce spam. Learn how your comment data is processed.