Metallica – Reload (Promo) (Japanese Edition)




No Cover available


Artist: Metallica
Year: 1997
Genre: Metal
Notes: Discogs
Add. Notes: Japanese Edition
Watch Songs on: YouTube
Cover incl.: Yes
Encoder: FLAC
Bitrate: ~1000 kBit/s (44.1 kHz/16 Bit/s)
Log & Cue incl.: Yes/Yes
Size: 112,4 MB
Password: “slam” (without ” “)


All Downloads/Hosters are compatible

Download 1
KatFile.com
Turbobit.net
Rapidgator.net
FileFactory.com
Download 2
KatFile.com
Turbobit.net
Rapidgator.net
FileFactory.com

Tracklist:

1 - Fuel 
2 - The Memory Remains 
3 - Devil's Dance 
4 - The Unforgiven II  
5 - Better Than You  
6 - Slither 
7 - Carpe Diem Baby 
8 - Bad Seed 
9 - Where The Wild Things Are 
10 - Prince Charming  
11 - Low Man's Lyric 
12 - Attitude  
13 - Fixxxer

EAC-Log, CUE-Sheed & NFO:

Click to open spoiler
Exact Audio Copy V0.99 prebeta 5 from 4. May 2009

EAC extraction logfile from 23. February 2012, 3:15

Metallica / Reload (Promo CD, SRCS 8512)

Used drive : PIONEER DVD-RW DVR-215 Adapter: 5 ID: 0

Read mode : Secure
Utilize accurate stream : Yes
Defeat audio cache : Yes
Make use of C2 pointers : No

Read offset correction : 48
Overread into Lead-In and Lead-Out : No
Fill up missing offset samples with silence : Yes
Delete leading and trailing silent blocks : No
Null samples used in CRC calculations : Yes
Used interface : Native Win32 interface for Win NT & 2000

Used output format : User Defined Encoder
Selected bitrate : 1024 kBit/s
Quality : High
Add ID3 tag : No
Command line compressor : C:\Program Files (x86)\Exact Audio Copy\Flac\flac.exe
Additional command line options : -8 -V %s

TOC of the extracted CD

Track | Start | Length | Start sector | End sector
———————————————————
1 | 0:00.00 | 4:29.37 | 0 | 20211
2 | 4:29.37 | 4:39.15 | 20212 | 41151
3 | 9:08.52 | 5:18.73 | 41152 | 65074
4 | 14:27.50 | 6:36.40 | 65075 | 94814
5 | 21:04.15 | 5:21.37 | 94815 | 118926
6 | 26:25.52 | 5:13.13 | 118927 | 142414
7 | 31:38.65 | 6:12.17 | 142415 | 170331
8 | 37:51.07 | 4:05.25 | 170332 | 188731
9 | 41:56.32 | 6:54.20 | 188732 | 219801
10 | 48:50.52 | 6:05.08 | 219802 | 247184
11 | 54:55.60 | 7:37.30 | 247185 | 281489
12 | 62:33.15 | 5:16.10 | 281490 | 305199
13 | 67:49.25 | 8:16.00 | 305200 | 342399

Range status and errors

Selected range

Filename E:\bki71\Metallica\Metallica – Reload (Promo CD, SRCS 8512).wav

Peak level 100.0 %
Range quality 100.0 %
Test CRC 18ACD934
Copy CRC 18ACD934
Copy OK

No errors occurred

AccurateRip summary

Track 1 accurately ripped (confidence 9) [C661C879]
Track 2 accurately ripped (confidence 10) [6A908188]
Track 3 accurately ripped (confidence 10) [54A24597]
Track 4 accurately ripped (confidence 10) [A6FBB359]
Track 5 accurately ripped (confidence 10) [532825F6]
Track 6 accurately ripped (confidence 10) [B0B3F8E1]
Track 7 accurately ripped (confidence 10) [A8A35843]
Track 8 accurately ripped (confidence 10) [9652C66D]
Track 9 accurately ripped (confidence 10) [9E77AFF7]
Track 10 accurately ripped (confidence 10) [C3058AA8]
Track 11 accurately ripped (confidence 10) [FA5377F9]
Track 12 accurately ripped (confidence 9) [DA51838A]
Track 13 accurately ripped (confidence 7) [286E7782]

All tracks accurately ripped

End of status report

REM GENRE Metal
REM DATE 1997
REM DISCID BE11D50D
REM COMMENT “ExactAudioCopy v0.99pb5”
PERFORMER “Metallica”
TITLE “Reload (Promo CD, SRCS 8512)”
FILE “Metallica – Reload (Promo CD, SRCS 8512).flac” WAVE
TRACK 01 AUDIO
TITLE “Fuel”
PERFORMER “Metallica”
INDEX 01 00:00:00
TRACK 02 AUDIO
TITLE “The Memory Remains”
PERFORMER “Metallica”
INDEX 01 04:29:37
TRACK 03 AUDIO
TITLE “Devil’s Dance”
PERFORMER “Metallica”
INDEX 00 09:07:32
INDEX 01 09:08:52
TRACK 04 AUDIO
TITLE “The Unforgiven II”
PERFORMER “Metallica”
INDEX 01 14:27:50
TRACK 05 AUDIO
TITLE “Better Than You”
PERFORMER “Metallica”
INDEX 01 21:04:15
TRACK 06 AUDIO
TITLE “Slither”
PERFORMER “Metallica”
INDEX 01 26:25:52
TRACK 07 AUDIO
TITLE “Carpe Diem Baby”
PERFORMER “Metallica”
INDEX 01 31:38:65
TRACK 08 AUDIO
TITLE “Bad Seed”
PERFORMER “Metallica”
INDEX 01 37:51:07
TRACK 09 AUDIO
TITLE “Where The Wild Things Are”
PERFORMER “Metallica”
INDEX 01 41:56:32
TRACK 10 AUDIO
TITLE “Prince Charming”
PERFORMER “Metallica”
INDEX 01 48:50:52
TRACK 11 AUDIO
TITLE “Low Man’s Lyric”
PERFORMER “Metallica”
INDEX 00 54:54:45
INDEX 01 54:55:60
TRACK 12 AUDIO
TITLE “Attitude”
PERFORMER “Metallica”
INDEX 01 62:33:15
TRACK 13 AUDIO
TITLE “Fixxxer”
PERFORMER “Metallica”
INDEX 01 67:49:25


Leave a Reply

Your email address will not be published. Required fields are marked *

This site uses Akismet to reduce spam. Learn how your comment data is processed.