Metallica – Reload (Limited Japanese Edition)




Artist: Metallica
Year: 1997/2010
Genre: Metal
Notes: Discogs
Add. Notes: Limited Japanese Edition
Encoder: FLAC
Bitrate: ~1000 kBit/s (44.1 kHz/16 Bit/s)
Bin/Cue incl.: Yes
Size: 576,82 MB
Password: “slam” (without ” “)


http://www.share-online.biz/dl/X7JWDVRPGW
http://www.share-online.biz/dl/8T5VDVRP0JN

https://rapidgator.net/file/0e24daf83e137ea734d394594f4800a4
https://rapidgator.net/file/d5e4e4638eaa404d9c9fd96f0145c5dd

https://uploadbyte.com/783vz8ck7k14
https://uploadbyte.com/hkwujdj5g9cf

https://uploadever.com/0u4lbp8medzq
https://uploadever.com/1e3e85otk65v

https://justupload.io/ho9td28rn4sp
https://justupload.io/yh8hkbu2z0dd

Tracklist:

1 - Fuel - 4:29
2 - The Memory Remains - 4:39
3 - Devil's Dance - 5:18
4 - The Unforgiven II - 6:36
5 - Better Than You - 5:21
6 - Slither - 5:13
7 - Carpe Diem Baby - 6:12
8 - Bad Seed - 4:05
9 - Where The Wild Things Are - 6:52
10 - Prince Charming - 6:04
11 - Low Man's Lyric - 7:36
12 - Attitude - 5:16
13 - Fixxxer - 8:15

EAC-Log, CUE-Sheed & NFO:

Click to open spoiler
Exact Audio Copy V0.99 prebeta 5 from 4. May 2009

EAC extraction logfile from 10. October 2013, 11:04

Metallica / Reload (SHM-CD, UICY-94668)

Used drive : PLEXTOR DVDR PX-760A Adapter: 0 ID: 0

Read mode : Secure
Utilize accurate stream : Yes
Defeat audio cache : Yes
Make use of C2 pointers : No

Read offset correction : 30
Overread into Lead-In and Lead-Out : No
Fill up missing offset samples with silence : Yes
Delete leading and trailing silent blocks : No
Null samples used in CRC calculations : Yes
Used interface : Native Win32 interface for Win NT & 2000

Used output format : User Defined Encoder
Selected bitrate : 1024 kBit/s
Quality : High
Add ID3 tag : No
Command line compressor : C:\Program Files (x86)\Exact Audio Copy\Flac\flac.exe
Additional command line options : -8 -V %s

TOC of the extracted CD

Track | Start | Length | Start sector | End sector
———————————————————
1 | 0:00.00 | 4:29.32 | 0 | 20206
2 | 4:29.32 | 4:39.25 | 20207 | 41156
3 | 9:08.57 | 5:19.00 | 41157 | 65081
4 | 14:27.57 | 6:36.16 | 65082 | 94797
5 | 21:03.73 | 5:21.62 | 94798 | 118934
6 | 26:25.60 | 5:13.00 | 118935 | 142409
7 | 31:38.60 | 6:12.30 | 142410 | 170339
8 | 37:51.15 | 4:05.25 | 170340 | 188739
9 | 41:56.40 | 6:54.17 | 188740 | 219806
10 | 48:50.57 | 6:05.00 | 219807 | 247181
11 | 54:55.57 | 7:37.30 | 247182 | 281486
12 | 62:33.12 | 5:16.25 | 281487 | 305211
13 | 67:49.37 | 8:15.17 | 305212 | 342353

Range status and errors

Selected range

Filename D:\bki71\Metallica\Metallica – Reload (SHM-CD, UICY-94668).wav

Peak level 100.0 %
Range quality 100.0 %
Test CRC C0BF53D9
Copy CRC C0BF53D9
Copy OK

No errors occurred

AccurateRip summary

Track 1 accurately ripped (confidence 4) [A45CE4F4]
Track 2 accurately ripped (confidence 4) [8DEA742F]
Track 3 accurately ripped (confidence 4) [645493D8]
Track 4 accurately ripped (confidence 4) [8968E21D]
Track 5 accurately ripped (confidence 4) [2DBE865F]
Track 6 accurately ripped (confidence 4) [9301A9A2]
Track 7 accurately ripped (confidence 4) [5DE44C8F]
Track 8 accurately ripped (confidence 4) [82CE8A9E]
Track 9 accurately ripped (confidence 3) [2277978E]
Track 10 accurately ripped (confidence 4) [4209807E]
Track 11 accurately ripped (confidence 4) [CD3C669C]
Track 12 accurately ripped (confidence 3) [738C7109]
Track 13 accurately ripped (confidence 4) [DDAC70BA]

All tracks accurately ripped

End of status report

REM GENRE “Thrash Metal”
REM DATE 1997
REM DISCID BD11D40D
REM COMMENT “ExactAudioCopy v0.99pb5”
PERFORMER “Metallica”
TITLE “Reload (SHM-CD, UICY-94668)”
FILE “Metallica – Reload (SHM-CD, UICY-94668).flac” WAVE
TRACK 01 AUDIO
TITLE “Fuel”
PERFORMER “Metallica”
INDEX 01 00:00:00
TRACK 02 AUDIO
TITLE “The Memory Remains”
PERFORMER “Metallica”
INDEX 01 04:29:32
TRACK 03 AUDIO
TITLE “Devil’s Dance”
PERFORMER “Metallica”
INDEX 01 09:08:57
TRACK 04 AUDIO
TITLE “The Unforgiven II”
PERFORMER “Metallica”
INDEX 01 14:27:57
TRACK 05 AUDIO
TITLE “Better Than You”
PERFORMER “Metallica”
INDEX 01 21:03:73
TRACK 06 AUDIO
TITLE “Slither”
PERFORMER “Metallica”
INDEX 01 26:25:60
TRACK 07 AUDIO
TITLE “Carpe Diem Baby”
PERFORMER “Metallica”
INDEX 01 31:38:60
TRACK 08 AUDIO
TITLE “Bad Seed”
PERFORMER “Metallica”
INDEX 01 37:51:15
TRACK 09 AUDIO
TITLE “Where The Wild Things Are”
PERFORMER “Metallica”
INDEX 01 41:56:40
TRACK 10 AUDIO
TITLE “Prince Charming”
PERFORMER “Metallica”
INDEX 01 48:50:57
TRACK 11 AUDIO
TITLE “Low Man’s Lyric”
PERFORMER “Metallica”
INDEX 00 54:54:30
INDEX 01 54:55:57
TRACK 12 AUDIO
TITLE “Attitude”
PERFORMER “Metallica”
INDEX 00 62:32:01
INDEX 01 62:33:12
TRACK 13 AUDIO
TITLE “Fixxxer”
PERFORMER “Metallica”
INDEX 01 67:49:37

Leave a Reply

Your email address will not be published. Required fields are marked *

This site uses Akismet to reduce spam. Learn how your comment data is processed.