Metallica – Re-Load (Promo)




Artist: Metallica
Year: 1997
Genre: Metal
Notes: Discogs
Add. Notes: Promo
Cover incl.: Yes
Encoder: FLAC
Bitrate: ~1000 kBit/s (44.1 kHz/16 Bit/s)
Log & Cue incl.: Yes
Size: 1200,4 MB
Password: “slam” (without ” “)


All Downloads/Hosters are compatible

Download 1
KatFile.com
Turbobit.net
FileFactory.com
Rapidgator.net
Download 2
KatFile.com
Turbobit.net
FileFactory.com
Rapidgator.net
Download 3
KatFile.com
Turbobit.net
FileFactory.com
Rapidgator.net

Tracklist:

CD 1 - Load:
1 - Ain't My Bitch - 5:04
2 - 2 X 4 - 5:28
3 - The House Jack Built - 6:38
4 - Until It Sleeps - 4:29
5 - King Nothing - 5:28
6 - Hero Of The Day - 4:21
7 - Bleeding Me - 8:18
8 - Cure - 4:54
9 - Poor Twisted Me - 4:00
10 - Wasting My Hate - 3:57
11 - Mama Said - 5:19
12 - Thorn Within - 5:51
13 - Ronnie - 5:17
14 - The Outlaw Torn - 9:48

CD 2 - Reload:
1 - Fuel - 4:29
2 - The Memory Remains - 4:39
3 - Devil's Dance - 5:18
4 - The Unforgiven II - 6:36
5 - Better Than You - 5:21
6 - Slither - 5:13
7 - Carpe Diem Baby - 6:12
8 - Bad Seed - 4:05
9 - Where The Wild Things Are - 6:52
10 - Prince Charming - 6:04
11 - Low Man's Lyric - 7:36
12 - Attitude - 5:16
13 - Fixxxer - 8:15

EAC-Log, CUE-Sheed & NFO:

Click to open spoiler
Exact Audio Copy V0.99 prebeta 5 from 4. May 2009

EAC extraction logfile from 16. March 2012, 20:08

Metallica / Load (USA Promo CD, Elektra 61923-2)

Used drive : PIONEER DVD-RW DVR-215 Adapter: 5 ID: 0

Read mode : Secure
Utilize accurate stream : Yes
Defeat audio cache : Yes
Make use of C2 pointers : No

Read offset correction : 48
Overread into Lead-In and Lead-Out : No
Fill up missing offset samples with silence : Yes
Delete leading and trailing silent blocks : No
Null samples used in CRC calculations : Yes
Used interface : Native Win32 interface for Win NT & 2000

Used output format : User Defined Encoder
Selected bitrate : 1024 kBit/s
Quality : High
Add ID3 tag : No
Command line compressor : C:\Program Files (x86)\Exact Audio Copy\Flac\flac.exe
Additional command line options : -8 -V %s

TOC of the extracted CD

Track | Start | Length | Start sector | End sector
———————————————————
1 | 0:00.33 | 5:04.12 | 33 | 22844
2 | 5:04.45 | 5:28.15 | 22845 | 47459
3 | 10:32.60 | 6:38.73 | 47460 | 77382
4 | 17:11.58 | 4:29.42 | 77383 | 97599
5 | 21:41.25 | 5:28.10 | 97600 | 122209
6 | 27:09.35 | 4:21.53 | 122210 | 141837
7 | 31:31.13 | 8:18.10 | 141838 | 179197
8 | 39:49.23 | 4:54.15 | 179198 | 201262
9 | 44:43.38 | 4:00.00 | 201263 | 219262
10 | 48:43.38 | 3:57.32 | 219263 | 237069
11 | 52:40.70 | 5:19.45 | 237070 | 261039
12 | 58:00.40 | 5:51.43 | 261040 | 287407
13 | 63:52.08 | 5:17.15 | 287408 | 311197
14 | 69:09.23 | 9:48.45 | 311198 | 355342

Range status and errors

Selected range

Filename E:\bki71\Metallica\Metallica – Load (USA Promo CD, Elektra 61923-2).wav

Peak level 100.0 %
Range quality 99.9 %
Test CRC 795ACAC6
Copy CRC 795ACAC6
Copy OK

No errors occurred

AccurateRip summary

Track 1 accurately ripped (confidence 29) [C959452A]
Track 2 accurately ripped (confidence 28) [762531F7]
Track 3 accurately ripped (confidence 28) [6FA0E9B6]
Track 4 accurately ripped (confidence 29) [E04966AA]
Track 5 accurately ripped (confidence 29) [F23D8735]
Track 6 accurately ripped (confidence 29) [2F7E34B6]
Track 7 accurately ripped (confidence 28) [58271E60]
Track 8 accurately ripped (confidence 27) [FC12C04A]
Track 9 accurately ripped (confidence 28) [D51D6F2F]
Track 10 accurately ripped (confidence 28) [CF1318C2]
Track 11 accurately ripped (confidence 28) [726762F3]
Track 12 accurately ripped (confidence 28) [976A0D1E]
Track 13 accurately ripped (confidence 28) [FC7023B6]
Track 14 accurately ripped (confidence 26) [65DC9EA7]

All tracks accurately ripped

End of status report

Exact Audio Copy V0.99 prebeta 5 from 4. May 2009

EAC extraction logfile from 16. March 2012, 20:38

Metallica / Reload (USA Promo CD, Elektra 62126-2)

Used drive : PIONEER DVD-RW DVR-215 Adapter: 5 ID: 0

Read mode : Secure
Utilize accurate stream : Yes
Defeat audio cache : Yes
Make use of C2 pointers : No

Read offset correction : 48
Overread into Lead-In and Lead-Out : No
Fill up missing offset samples with silence : Yes
Delete leading and trailing silent blocks : No
Null samples used in CRC calculations : Yes
Used interface : Native Win32 interface for Win NT & 2000

Used output format : User Defined Encoder
Selected bitrate : 1024 kBit/s
Quality : High
Add ID3 tag : No
Command line compressor : C:\Program Files (x86)\Exact Audio Copy\Flac\flac.exe
Additional command line options : -8 -V %s

TOC of the extracted CD

Track | Start | Length | Start sector | End sector
———————————————————
1 | 0:00.32 | 4:29.55 | 32 | 20261
2 | 4:30.12 | 4:39.18 | 20262 | 41204
3 | 9:09.30 | 5:18.72 | 41205 | 65126
4 | 14:28.27 | 6:36.33 | 65127 | 94859
5 | 21:04.60 | 5:21.45 | 94860 | 118979
6 | 26:26.30 | 5:13.15 | 118980 | 142469
7 | 31:39.45 | 6:12.15 | 142470 | 170384
8 | 37:51.60 | 4:05.25 | 170385 | 188784
9 | 41:57.10 | 6:54.10 | 188785 | 219844
10 | 48:51.20 | 6:05.17 | 219845 | 247236
11 | 54:56.37 | 7:37.20 | 247237 | 281531
12 | 62:33.57 | 5:16.18 | 281532 | 305249
13 | 67:50.00 | 8:15.17 | 305250 | 342391

Range status and errors

Selected range

Filename E:\bki71\Metallica\Metallica – Reload (USA Promo CD, Elektra 62126-2).wav

Peak level 100.0 %
Range quality 99.9 %
Test CRC 5E45B60B
Copy CRC 5E45B60B
Copy OK

No errors occurred

AccurateRip summary

Track 1 accurately ripped (confidence 200) [4FCA3B2D]
Track 2 accurately ripped (confidence 200) [BB26C424]
Track 3 accurately ripped (confidence 200) [C4313462]
Track 4 accurately ripped (confidence 200) [4C32EFA4]
Track 5 accurately ripped (confidence 200) [13F6628A]
Track 6 accurately ripped (confidence 200) [D6721676]
Track 7 accurately ripped (confidence 200) [5910F457]
Track 8 accurately ripped (confidence 200) [21C9BE82]
Track 9 accurately ripped (confidence 200) [152AB3CA]
Track 10 accurately ripped (confidence 200) [2DC825DE]
Track 11 accurately ripped (confidence 200) [A769F480]
Track 12 accurately ripped (confidence 200) [0A635EF7]
Track 13 accurately ripped (confidence 200) [1620B05E]

All tracks accurately ripped

End of status report

REM GENRE Metal
REM DATE 1996
REM DISCID B612810E
REM COMMENT “ExactAudioCopy v0.99pb5”
PERFORMER “Metallica”
TITLE “Load (USA Promo CD, Elektra 61923-2)”
FILE “Metallica – Load (USA Promo CD, Elektra 61923-2).flac” WAVE
TRACK 01 AUDIO
TITLE “Ain’t My Bitch”
PERFORMER “Metallica”
INDEX 00 00:00:00
INDEX 01 00:00:33
TRACK 02 AUDIO
TITLE “2 x 4”
PERFORMER “Metallica”
INDEX 01 05:04:45
TRACK 03 AUDIO
TITLE “The House Jack Built”
PERFORMER “Metallica”
INDEX 01 10:32:60
TRACK 04 AUDIO
TITLE “Until It Sleeps”
PERFORMER “Metallica”
INDEX 01 17:11:58
TRACK 05 AUDIO
TITLE “King Nothing”
PERFORMER “Metallica”
INDEX 01 21:41:25
TRACK 06 AUDIO
TITLE “Hero Of The Day”
PERFORMER “Metallica”
INDEX 01 27:09:35
TRACK 07 AUDIO
TITLE “Bleeding Me”
PERFORMER “Metallica”
INDEX 01 31:31:13
TRACK 08 AUDIO
TITLE “Cure”
PERFORMER “Metallica”
INDEX 01 39:49:23
TRACK 09 AUDIO
TITLE “Poor Twisted Me”
PERFORMER “Metallica”
INDEX 01 44:43:38
TRACK 10 AUDIO
TITLE “Wasting My Hate”
PERFORMER “Metallica”
INDEX 01 48:43:38
TRACK 11 AUDIO
TITLE “Mama Said”
PERFORMER “Metallica”
INDEX 01 52:40:70
TRACK 12 AUDIO
TITLE “Thorn Within”
PERFORMER “Metallica”
INDEX 01 58:00:40
TRACK 13 AUDIO
TITLE “Ronnie”
PERFORMER “Metallica”
INDEX 01 63:52:08
TRACK 14 AUDIO
TITLE “The Outlaw Torn”
PERFORMER “Metallica”
INDEX 01 69:09:23

REM GENRE Metal
REM DATE 1997
REM DISCID BE11D50D
REM COMMENT “ExactAudioCopy v0.99pb5”
PERFORMER “Metallica”
TITLE “Reload (USA Promo CD, Elektra 62126-2)”
FILE “Metallica – Reload (USA Promo CD, Elektra 62126-2).flac” WAVE
TRACK 01 AUDIO
TITLE “Fuel”
PERFORMER “Metallica”
INDEX 00 00:00:00
INDEX 01 00:00:32
TRACK 02 AUDIO
TITLE “The Memory Remains”
PERFORMER “Metallica”
INDEX 00 04:30:10
INDEX 01 04:30:12
TRACK 03 AUDIO
TITLE “Devil’s Dance”
PERFORMER “Metallica”
INDEX 00 09:09:27
INDEX 01 09:09:30
TRACK 04 AUDIO
TITLE “The Unforgiven II”
PERFORMER “Metallica”
INDEX 00 14:28:25
INDEX 01 14:28:27
TRACK 05 AUDIO
TITLE “Better Than You”
PERFORMER “Metallica”
INDEX 00 21:04:57
INDEX 01 21:04:60
TRACK 06 AUDIO
TITLE “Slither”
PERFORMER “Metallica”
INDEX 00 26:26:27
INDEX 01 26:26:30
TRACK 07 AUDIO
TITLE “Carpe Diem Baby”
PERFORMER “Metallica”
INDEX 00 31:39:42
INDEX 01 31:39:45
TRACK 08 AUDIO
TITLE “Bad Seed”
PERFORMER “Metallica”
INDEX 00 37:51:57
INDEX 01 37:51:60
TRACK 09 AUDIO
TITLE “Where The Wild Things Are”
PERFORMER “Metallica”
INDEX 00 41:57:07
INDEX 01 41:57:10
TRACK 10 AUDIO
TITLE “Prince Charming”
PERFORMER “Metallica”
INDEX 00 48:50:30
INDEX 01 48:51:20
TRACK 11 AUDIO
TITLE “Low Man’s Lyric”
PERFORMER “Metallica”
INDEX 00 54:55:32
INDEX 01 54:56:37
TRACK 12 AUDIO
TITLE “Attitude”
PERFORMER “Metallica”
INDEX 00 62:32:55
INDEX 01 62:33:57
TRACK 13 AUDIO
TITLE “Fixxxer”
PERFORMER “Metallica”
INDEX 00 67:49:72
INDEX 01 67:50:00

Load Promo:
https://www.discogs.com/Metallica-Load/release/7751845

Re-Load Promo:
https://www.discogs.com/Metallica-Reload/release/6326999


Leave a Reply

Your email address will not be published. Required fields are marked *

Enter the text from the image below
 

This site uses Akismet to reduce spam. Learn how your comment data is processed.