Metallica – Orgullo, Pasion, Y Gloria




Artist: Metallica
Year: 2009
Genre: Metal
Notes: Discogs
Add. Notes:
Cover incl.: Yes
Encoder: FLAC
Bitrate: ~1000 kBit/s (44.1 kHz/16 Bit/s)
Log & Cue incl.: Yes
Size: 1009,81 MB
Password: “slam” (without ” “)


All Downloads/Hosters are compatible

Download 1
Turbobit.net
Rapidgator.net
UploadEver.com
KatFile.com
UsersDrive.com
Download 2
Turbobit.net
Rapidgator.net
UploadEver.com
KatFile.com
UsersDrive.com
Download 3
Turbobit.net
Rapidgator.net
UploadEver.com
KatFile.com
UsersDrive.com

Tracklist:

CD1
1. Ecstasy Of Gold 
2. Creeping Death 
3. For Whom The Bell Tolls 
4. Ride The Lightning 
5. Diposable Heroes 
6. One 
7. Broken, Beat & Scarred 
8. The Memory Remains 
9. Sad But True 
10. The Unforgiven 
CD2
1. Alll Nightmare Long 
2. The Day That Never Comes 
3. Master Of Puppets 
4. Fight Fire With Fire 
5. Nothing Else Matters 
6. Enter Sandman 
7. The Wait 
8. Hit The Lights 
9. Seek & Destroy

EAC-Log, CUE-Sheed & NFO:

Click to open spoiler
Exact Audio Copy V0.99 prebeta 5 from 4. May 2009

EAC extraction logfile from 4. January 2013, 17:39

Metallica / Orgullo, Pasion, Y Gloria (CD 1)

Used drive : PIONEER DVD-RW DVR-215 Adapter: 5 ID: 0

Read mode : Secure
Utilize accurate stream : Yes
Defeat audio cache : Yes
Make use of C2 pointers : No

Read offset correction : 48
Overread into Lead-In and Lead-Out : No
Fill up missing offset samples with silence : Yes
Delete leading and trailing silent blocks : No
Null samples used in CRC calculations : Yes
Used interface : Native Win32 interface for Win NT & 2000

Used output format : User Defined Encoder
Selected bitrate : 1024 kBit/s
Quality : High
Add ID3 tag : No
Command line compressor : C:\Program Files (x86)\Exact Audio Copy\Flac\flac.exe
Additional command line options : -8 -V %s

TOC of the extracted CD

Track | Start | Length | Start sector | End sector
———————————————————
1 | 0:00.00 | 1:57.52 | 0 | 8826
2 | 1:57.52 | 6:20.40 | 8827 | 37366
3 | 8:18.17 | 5:29.56 | 37367 | 62097
4 | 13:47.73 | 7:09.56 | 62098 | 94328
5 | 20:57.54 | 8:22.08 | 94329 | 131986
6 | 29:19.62 | 9:05.42 | 131987 | 172903
7 | 38:25.29 | 6:48.23 | 172904 | 203526
8 | 45:13.52 | 5:32.62 | 203527 | 228488
9 | 50:46.39 | 7:04.67 | 228489 | 260355
10 | 57:51.31 | 5:50.46 | 260356 | 286651

Range status and errors

Selected range

Filename E:\bki71\Metallica\Metallica – Orgullo, Pasion, Y Gloria (CD 1).wav

Peak level 100.0 %
Range quality 99.9 %
Test CRC 6DFE27C4
Copy CRC 6DFE27C4
Copy OK

No errors occurred

AccurateRip summary

Track 1 accurately ripped (confidence 3) [C85E6B3F]
Track 2 accurately ripped (confidence 3) [1AB59E39]
Track 3 accurately ripped (confidence 3) [4E351A1E]
Track 4 accurately ripped (confidence 3) [24F0E392]
Track 5 accurately ripped (confidence 3) [3EF5993E]
Track 6 accurately ripped (confidence 3) [920449C8]
Track 7 accurately ripped (confidence 3) [D15E5150]
Track 8 accurately ripped (confidence 3) [51827BF1]
Track 9 accurately ripped (confidence 3) [65E6FB13]
Track 10 accurately ripped (confidence 3) [F42A8D0F]

All tracks accurately ripped

End of status report

Exact Audio Copy V0.99 prebeta 5 from 4. May 2009

EAC extraction logfile from 4. January 2013, 18:03

Metallica / Orgullo, Pasion, Y Gloria (CD 2)

Used drive : PIONEER DVD-RW DVR-215 Adapter: 5 ID: 0

Read mode : Secure
Utilize accurate stream : Yes
Defeat audio cache : Yes
Make use of C2 pointers : No

Read offset correction : 48
Overread into Lead-In and Lead-Out : No
Fill up missing offset samples with silence : Yes
Delete leading and trailing silent blocks : No
Null samples used in CRC calculations : Yes
Used interface : Native Win32 interface for Win NT & 2000

Used output format : User Defined Encoder
Selected bitrate : 1024 kBit/s
Quality : High
Add ID3 tag : No
Command line compressor : C:\Program Files (x86)\Exact Audio Copy\Flac\flac.exe
Additional command line options : -8 -V %s

TOC of the extracted CD

Track | Start | Length | Start sector | End sector
———————————————————
1 | 0:00.00 | 8:05.60 | 0 | 36434
2 | 8:05.60 | 8:05.67 | 36435 | 72876
3 | 16:11.52 | 8:13.41 | 72877 | 109892
4 | 24:25.18 | 6:48.30 | 109893 | 140522
5 | 31:13.48 | 5:57.18 | 140523 | 167315
6 | 37:10.66 | 8:18.30 | 167316 | 204695
7 | 45:29.21 | 4:16.41 | 204696 | 223936
8 | 49:45.62 | 6:33.26 | 223937 | 253437
9 | 56:19.13 | 7:37.27 | 253438 | 287739

Range status and errors

Selected range

Filename E:\bki71\Metallica\Metallica – Orgullo, Pasion, Y Gloria (CD 2).wav

Peak level 100.0 %
Range quality 100.0 %
Test CRC 3E9379BF
Copy CRC 3E9379BF
Copy OK

No errors occurred

AccurateRip summary

Track 1 accurately ripped (confidence 3) [5CCCFAA5]
Track 2 accurately ripped (confidence 3) [2FDF7225]
Track 3 accurately ripped (confidence 3) [E154AC1F]
Track 4 accurately ripped (confidence 3) [3ABF6323]
Track 5 accurately ripped (confidence 3) [F624339E]
Track 6 accurately ripped (confidence 3) [2243AA0F]
Track 7 accurately ripped (confidence 3) [507B3FB7]
Track 8 accurately ripped (confidence 3) [F6063EB4]
Track 9 accurately ripped (confidence 3) [478E9383]

All tracks accurately ripped

End of status report

REM GENRE “Thrash Metal”
REM DATE 2009
REM DISCID 800EEE0A
REM COMMENT “ExactAudioCopy v0.99pb5”
PERFORMER “Metallica”
TITLE “Orgullo, Pasion, Y Gloria (CD 1)”
FILE “Metallica – Orgullo, Pasion, Y Gloria (CD 1).flac” WAVE
TRACK 01 AUDIO
TITLE “The Ecstasy of Gold”
PERFORMER “Metallica”
FLAGS DCP
INDEX 01 00:00:00
TRACK 02 AUDIO
TITLE “Creeping Death”
PERFORMER “Metallica”
FLAGS DCP
INDEX 01 01:57:52
TRACK 03 AUDIO
TITLE “For Whom the Bell Tolls”
PERFORMER “Metallica”
FLAGS DCP
INDEX 01 08:18:17
TRACK 04 AUDIO
TITLE “Ride the Lightning”
PERFORMER “Metallica”
FLAGS DCP
INDEX 01 13:47:73
TRACK 05 AUDIO
TITLE “Disposable Heroes”
PERFORMER “Metallica”
FLAGS DCP
INDEX 01 20:57:54
TRACK 06 AUDIO
TITLE “One”
PERFORMER “Metallica”
FLAGS DCP
INDEX 01 29:19:62
TRACK 07 AUDIO
TITLE “Broken, Beat & Scarred”
PERFORMER “Metallica”
FLAGS DCP
INDEX 01 38:25:29
TRACK 08 AUDIO
TITLE “The Memory Remains”
PERFORMER “Metallica”
FLAGS DCP
INDEX 01 45:13:52
TRACK 09 AUDIO
TITLE “Sad But True”
PERFORMER “Metallica”
FLAGS DCP
INDEX 01 50:46:39
TRACK 10 AUDIO
TITLE “The Unforgiven”
PERFORMER “Metallica”
FLAGS DCP
INDEX 01 57:51:31

REM GENRE “Thrash Metal”
REM DATE 2009
REM DISCID 8E0EFC09
REM COMMENT “ExactAudioCopy v0.99pb5”
PERFORMER “Metallica”
TITLE “Orgullo, Pasion, Y Gloria (CD 2)”
FILE “Metallica – Orgullo, Pasion, Y Gloria (CD 2).flac” WAVE
TRACK 01 AUDIO
TITLE “All Nightmare Long”
PERFORMER “Metallica”
FLAGS DCP
INDEX 01 00:00:00
TRACK 02 AUDIO
TITLE “The Day That Never Comes”
PERFORMER “Metallica”
FLAGS DCP
INDEX 01 08:05:60
TRACK 03 AUDIO
TITLE “Master of Puppets”
PERFORMER “Metallica”
FLAGS DCP
INDEX 01 16:11:52
TRACK 04 AUDIO
TITLE “Fight Fire With Fire”
PERFORMER “Metallica”
FLAGS DCP
INDEX 01 24:25:18
TRACK 05 AUDIO
TITLE “Nothing Else Matters”
PERFORMER “Metallica”
FLAGS DCP
INDEX 01 31:13:48
TRACK 06 AUDIO
TITLE “Enter Sandman”
PERFORMER “Metallica”
FLAGS DCP
INDEX 01 37:10:66
TRACK 07 AUDIO
TITLE “The Wait”
PERFORMER “Metallica”
FLAGS DCP
INDEX 01 45:29:21
TRACK 08 AUDIO
TITLE “Hit the Lights”
PERFORMER “Metallica”
FLAGS DCP
INDEX 01 49:45:62
TRACK 09 AUDIO
TITLE “Seek & Destroy”
PERFORMER “Metallica”
FLAGS DCP
INDEX 01 56:19:13

Leave a Reply

Your email address will not be published. Required fields are marked *

This site uses Akismet to reduce spam. Learn how your comment data is processed.