Metallica – Metallica




No Cover available

Artist: Metallica
Year: 1991
Genre: Metal
Notes: Discogs
Add. Notes:
Watch Songs on: YouTube
Cover incl.: Yes
Encoder: 24-bit FLAC
Bitrate: ~3000 kBit/s (96 kHz/24 Bit/s)
Log & Cue incl.: Yes/Yes
Size: 1355,3 MB
Password: “slam” (without ” “)


All Downloads/Hosters are compatible

Download 1
KatFile.com
Turbobit.net
Rapidgator.net
FileFactory.com
Download 2
KatFile.com
Turbobit.net
Rapidgator.net
FileFactory.com

Tracklist:

1 Enter Sandman 5:29
2 Sad But True 5:24
3 Holier Than Thou 3:47
4 The Unforgiven 6:26
5 Wherever I May Roam 6:42
6 Don't Tread On Me 3:59
7 Through The Never 4:01
8 Nothing Else Matters 6:29
9 Of Wolf And Man 4:16
10 The God That Failed 5:05
11 My Friend Of Misery 6:47
12 The Struggle Within 3:51

EAC-Log, CUE-Sheed & NFO:

Click to open spoiler
PERFORMER “Metallica”
TITLE “Metallica”
FILE “Metallica – Metallica.flac” FLAC
TRACK 01 AUDIO
TITLE “Enter Sandman”
PERFORMER “Metallica”
INDEX 01 00:01:70
TRACK 02 AUDIO
TITLE “Sad But True”
PERFORMER “Metallica”
INDEX 01 05:33:30
TRACK 03 AUDIO
TITLE “Holier Than Thou”
PERFORMER “Metallica”
INDEX 01 10:59:00
TRACK 04 AUDIO
TITLE “The Unforgiven”
PERFORMER “Metallica”
INDEX 01 14:47:30
TRACK 05 AUDIO
TITLE “Wherever I May Roam”
PERFORMER “Metallica”
INDEX 01 21:15:00
TRACK 06 AUDIO
TITLE “Don’t Tread On Me”
PERFORMER “Metallica”
INDEX 01 27:59:60
TRACK 07 AUDIO
TITLE “Through The Never”
PERFORMER “Metallica”
INDEX 01 32:00:40
TRACK 08 AUDIO
TITLE “Nothing Else Matters”
PERFORMER “Metallica”
INDEX 01 36:04:58
TRACK 09 AUDIO
TITLE “Of Wolf And Man”
PERFORMER “Metallica”
INDEX 01 42:34:40
TRACK 10 AUDIO
TITLE “The God That Failed”
PERFORMER “Metallica”
INDEX 01 46:53:30
TRACK 11 AUDIO
TITLE “My Friend Of Misery”
PERFORMER “Metallica”
INDEX 01 52:02:00
TRACK 12 AUDIO
TITLE “The Struggle Within”
PERFORMER “Metallica”
INDEX 01 58:52:20

0

Publication author

offline 14 hours

Chaos

3
Comments: 4Publics: 3418Registration: 02-02-2019
Spread the Download

Leave a Reply

Your email address will not be published. Required fields are marked *

Enter the text from the image below
 

This site uses Akismet to reduce spam. Learn how your comment data is processed.