Metallica – Metallica (Remastered Japanese Edition)




No Cover available


Artist: Metallica
Year: 1991/2010
Genre: Metal
Notes: Discogs
Add. Notes: Remastered Japanese Edition
Watch Songs on: YouTube
Cover incl.: Yes
Encoder: FLAC
Bitrate: ~1000 kBit/s (44.1 kHz/16 Bit/s)
Log & Cue incl.: Yes/Yes
Size: 498,2 MB
Password: “slam” (without ” “)


All Downloads/Hosters are compatible

Download 1
KatFile.com
Turbobit.net
Rapidgator.net
FileFactory.com
Download 2
KatFile.com
Turbobit.net
Rapidgator.net
FileFactory.com

Tracklist:

1 - Enter Sandman - 5:29
2 - Sad But True - 5:24
3 - Holier Than Thou - 3:47
4 - The Unforgiven - 6:26
5 - Wherever I May Roam - 6:42
6 - Don't Tread On Me - 3:59
7 - Through The Never - 4:01
8 - Nothing Else Matters - 6:29
9 - Of Wolf And Man - 4:16
10 - The God That Failed - 5:05
11 - My Friend Of Misery - 6:47
12 - The Struggle Within - 3:51
13 - So What - 3:08

EAC-Log, CUE-Sheed & NFO:

Click to open spoiler
Exact Audio Copy V0.99 prebeta 5 from 4. May 2009

EAC extraction logfile from 8. April 2012, 1:53

Metallica / Metallica (SHM-CD, UICY-94666)

Used drive : PLEXTOR DVDR PX-760A Adapter: 0 ID: 0

Read mode : Secure
Utilize accurate stream : Yes
Defeat audio cache : Yes
Make use of C2 pointers : No

Read offset correction : 30
Overread into Lead-In and Lead-Out : No
Fill up missing offset samples with silence : Yes
Delete leading and trailing silent blocks : No
Null samples used in CRC calculations : Yes
Used interface : Native Win32 interface for Win NT & 2000

Used output format : User Defined Encoder
Selected bitrate : 1024 kBit/s
Quality : High
Add ID3 tag : No
Command line compressor : C:\Program Files (x86)\Exact Audio Copy\Flac\flac.exe
Additional command line options : -8 -V %s

TOC of the extracted CD

Track | Start | Length | Start sector | End sector
———————————————————
1 | 0:00.00 | 5:31.65 | 0 | 24889
2 | 5:31.65 | 5:24.60 | 24890 | 49249
3 | 10:56.50 | 3:48.25 | 49250 | 66374
4 | 14:45.00 | 6:27.30 | 66375 | 95429
5 | 21:12.30 | 6:44.35 | 95430 | 125764
6 | 27:56.65 | 4:00.50 | 125765 | 143814
7 | 31:57.40 | 4:04.40 | 143815 | 162154
8 | 36:02.05 | 6:28.70 | 162155 | 191324
9 | 42:31.00 | 4:16.67 | 191325 | 210591
10 | 46:47.67 | 5:08.35 | 210592 | 233726
11 | 51:56.27 | 6:50.03 | 233727 | 264479
12 | 58:46.30 | 3:53.57 | 264480 | 282011
13 | 62:40.12 | 3:08.13 | 282012 | 296124

Range status and errors

Selected range

Filename E:\bki71\Metallica\Metallica – Metallica (SHM-CD, UICY-94666).wav

Peak level 99.9 %
Range quality 100.0 %
Test CRC 12345A2E
Copy CRC 12345A2E
Copy OK

No errors occurred

AccurateRip summary

Track 1 accurately ripped (confidence 10) [6E623901]
Track 2 accurately ripped (confidence 10) [EE7F039B]
Track 3 accurately ripped (confidence 10) [35B5145B]
Track 4 accurately ripped (confidence 10) [D401B0FC]
Track 5 accurately ripped (confidence 10) [4323CDD8]
Track 6 accurately ripped (confidence 10) [250DCEA4]
Track 7 accurately ripped (confidence 10) [17373292]
Track 8 accurately ripped (confidence 10) [71433C1E]
Track 9 accurately ripped (confidence 10) [C8F66CC0]
Track 10 accurately ripped (confidence 10) [3E0CF4CB]
Track 11 accurately ripped (confidence 10) [711F58F9]
Track 12 accurately ripped (confidence 9) [FF85CA5A]
Track 13 accurately ripped (confidence 9) [96EF4F7C]

All tracks accurately ripped

End of status report

REM GENRE “Thrash Metal”
REM DATE 1991
REM DISCID CD0F6C0D
REM COMMENT “ExactAudioCopy v0.99pb5”
PERFORMER “Metallica”
TITLE “Metallica (SHM-CD, UICY-94666)”
FILE “Metallica – Metallica (SHM-CD, UICY-94666).flac” WAVE
TRACK 01 AUDIO
TITLE “Enter Sandman”
PERFORMER “Metallica”
INDEX 01 00:00:00
TRACK 02 AUDIO
TITLE “Sad But True”
PERFORMER “Metallica”
INDEX 00 05:30:29
INDEX 01 05:31:65
TRACK 03 AUDIO
TITLE “Holier Than Thou”
PERFORMER “Metallica”
INDEX 00 10:55:68
INDEX 01 10:56:50
TRACK 04 AUDIO
TITLE “The Unforgiven”
PERFORMER “Metallica”
INDEX 01 14:45:00
TRACK 05 AUDIO
TITLE “Wherever I May Roam”
PERFORMER “Metallica”
INDEX 00 21:10:60
INDEX 01 21:12:30
TRACK 06 AUDIO
TITLE “Don’t Tread On Me”
PERFORMER “Metallica”
INDEX 00 27:55:45
INDEX 01 27:56:65
TRACK 07 AUDIO
TITLE “Through The Never”
PERFORMER “Metallica”
INDEX 01 31:57:40
TRACK 08 AUDIO
TITLE “Nothing Else Matters”
PERFORMER “Metallica”
INDEX 00 36:00:50
INDEX 01 36:02:05
TRACK 09 AUDIO
TITLE “Of Wolf And Man”
PERFORMER “Metallica”
INDEX 00 42:30:11
INDEX 01 42:31:00
TRACK 10 AUDIO
TITLE “The God That Failed”
PERFORMER “Metallica”
INDEX 00 46:47:43
INDEX 01 46:47:67
TRACK 11 AUDIO
TITLE “My Friend Of Misery”
PERFORMER “Metallica”
INDEX 00 51:55:51
INDEX 01 51:56:27
TRACK 12 AUDIO
TITLE “The Struggle Within”
PERFORMER “Metallica”
INDEX 00 58:44:65
INDEX 01 58:46:30
TRACK 13 AUDIO
TITLE “So What”
PERFORMER “Metallica”
INDEX 00 62:39:27
INDEX 01 62:40:12


Leave a Reply

Your email address will not be published. Required fields are marked *

Enter the text from the image below
 

This site uses Akismet to reduce spam. Learn how your comment data is processed.