Metallica – Metallica




No Cover available

Artist: Metallica
Year: 1991
Genre: Metal
Notes: Discogs
Add. Notes: Japanese Edition
Watch Songs on: YouTube
Cover incl.: No
Encoder: FLAC
Bitrate: ~1000 kBit/s (44.1 kHz/16 Bit/s)
Log & Cue incl.: No/Yes
Size: 461,5 MB
Password: “slam” (without ” “)


All Downloads/Hosters are compatible

Download 1
KatFile.com
Turbobit.net
FileFactory.com
Rapidgator.net
Download 2
KatFile.com
Turbobit.net
FileFactory.com
Rapidgator.net

Tracklist:

1 Enter Sandman 5:32
2 Sad But True 5:24
3 Holier Than Thou 3:47
4 The Unforgiven 6:27
5 Wherever I May Roam 6:44
6 Don't Tread On Me 4:00
7 Through The Never 4:04
8 Nothing Else Matters 6:28
9 Of Wolf And Man 4:16
10 The God That Failed 5:08
11 My Friend Of Misery 6:48
12 The Struggle Within 3:53
13 So What 3:08

EAC-Log, CUE-Sheed & NFO:

Click to open spoiler
REM GENRE “Thrash Metal”
REM DATE 1991
REM DISCID C40F6A0D
REM COMMENT “ExactAudioCopy v1.0b1”
PERFORMER “Metallica”
TITLE “Metallica (SRCS 5577)”
FILE “01. Enter Sandman.flac” WAVE
TRACK 01 AUDIO
TITLE “Enter Sandman”
PERFORMER “Metallica”
INDEX 01 00:00:00
FILE “02. Sad But True.flac” WAVE
TRACK 02 AUDIO
TITLE “Sad But True”
PERFORMER “Metallica”
INDEX 01 00:00:00
FILE “03. Holier Than Thou.flac” WAVE
TRACK 03 AUDIO
TITLE “Holier Than Thou”
PERFORMER “Metallica”
INDEX 01 00:00:00
FILE “04. The Unforgiven.flac” WAVE
TRACK 04 AUDIO
TITLE “The Unforgiven”
PERFORMER “Metallica”
INDEX 01 00:00:00
FILE “05. Wherever I May Roam.flac” WAVE
TRACK 05 AUDIO
TITLE “Wherever I May Roam”
PERFORMER “Metallica”
INDEX 01 00:00:00
FILE “06. Don’t Tread On Me.flac” WAVE
TRACK 06 AUDIO
TITLE “Don’t Tread On Me”
PERFORMER “Metallica”
INDEX 01 00:00:00
FILE “07. Through The Never.flac” WAVE
TRACK 07 AUDIO
TITLE “Through The Never”
PERFORMER “Metallica”
INDEX 01 00:00:00
FILE “08. Nothing Else Matters.flac” WAVE
TRACK 08 AUDIO
TITLE “Nothing Else Matters”
PERFORMER “Metallica”
INDEX 01 00:00:00
FILE “09. Of Wolf And Man.flac” WAVE
TRACK 09 AUDIO
TITLE “Of Wolf And Man”
PERFORMER “Metallica”
INDEX 01 00:00:00
FILE “10. The God That Failed.flac” WAVE
TRACK 10 AUDIO
TITLE “The God That Failed”
PERFORMER “Metallica”
INDEX 01 00:00:00
FILE “11. My Friend Of Misery.flac” WAVE
TRACK 11 AUDIO
TITLE “My Friend Of Misery”
PERFORMER “Metallica”
INDEX 01 00:00:00
TRACK 12 AUDIO
TITLE “The Struggle Within”
PERFORMER “Metallica”
INDEX 00 06:48:72
FILE “12. The Struggle Within.flac” WAVE
INDEX 01 00:00:00
FILE “13. So What.flac” WAVE
TRACK 13 AUDIO
TITLE “So What”
PERFORMER “Metallica”
INDEX 01 00:00:00

Leave a Reply

Your email address will not be published. Required fields are marked *

This site uses Akismet to reduce spam. Learn how your comment data is processed.