Metallica – Metallica (Australasian Tour Gold Signature Edition)




Artist: Metallica
Year: 1991/1993
Genre: Metal
Notes: Discogs
Add. Notes:
Cover incl.: Yes
Encoder: FLAC
Bitrate: ~1000 kBit/s (44.1 kHz/16 Bit/s)
Log & Cue incl.: Yes
Size: 460,4 MB
Password: “slam” (without ” “)


All Downloads/Hosters are compatible

Download 1
KatFile.com
Turbobit.net
FileFactory.com
Rapidgator.net
Download 2
KatFile.com
Turbobit.net
FileFactory.com
Rapidgator.net
Download 3
KatFile.com
Turbobit.net
FileFactory.com
Rapidgator.net

Tracklist:

1 - Enter Sandman  
2 - Sad But True 
3 - Holier Than Thou  
4 - The Unforgiven 
5 - Wherever I May Roam  
6 - Don't Tread On Me  
7 - Through The Never 
8 - Nothing Else Matters  
9 - Of Wolf And Man 
10 - The God That Failed  
11 - My Friend Of Misery 
12 - The Struggle Within

EAC-Log, CUE-Sheed & NFO:

Click to open spoiler
Exact Audio Copy V0.99 prebeta 5 from 4. May 2009

EAC extraction logfile from 5. July 2013, 14:15

Metallica / Metallica (1993 Australasian Tour Gold Signature Edition)

Used drive : PIONEER DVD-RW DVR-215 Adapter: 5 ID: 0

Read mode : Secure
Utilize accurate stream : Yes
Defeat audio cache : Yes
Make use of C2 pointers : No

Read offset correction : 48
Overread into Lead-In and Lead-Out : No
Fill up missing offset samples with silence : Yes
Delete leading and trailing silent blocks : No
Null samples used in CRC calculations : Yes
Used interface : Native Win32 interface for Win NT & 2000

Used output format : User Defined Encoder
Selected bitrate : 1024 kBit/s
Quality : High
Add ID3 tag : No
Command line compressor : C:\Program Files (x86)\Exact Audio Copy\Flac\flac.exe
Additional command line options : -8 -V %s

TOC of the extracted CD

Track | Start | Length | Start sector | End sector
———————————————————
1 | 0:00.00 | 5:32.17 | 0 | 24916
2 | 5:32.17 | 5:24.43 | 24917 | 49259
3 | 10:56.60 | 3:47.47 | 49260 | 66331
4 | 14:44.32 | 6:27.18 | 66332 | 95374
5 | 21:11.50 | 6:44.17 | 95375 | 125691
6 | 27:55.67 | 4:00.15 | 125692 | 143706
7 | 31:56.07 | 4:04.38 | 143707 | 162044
8 | 36:00.45 | 6:28.55 | 162045 | 191199
9 | 42:29.25 | 4:16.45 | 191200 | 210444
10 | 46:45.70 | 5:08.40 | 210445 | 233584
11 | 51:54.35 | 6:49.47 | 233585 | 264306
12 | 58:44.07 | 3:55.05 | 264307 | 281936

Range status and errors

Selected range

Filename D:\bki71\Metallica\Metallica – Metallica (1993 Australasian Tour Gold Signature Edition).wav

Peak level 100.0 %
Range quality 100.0 %
Test CRC 30AA32C4
Copy CRC 30AA32C4
Copy OK

No errors occurred

AccurateRip summary

Track 1 accurately ripped (confidence 17) [325D6B1D]
Track 2 accurately ripped (confidence 16) [A59ACDFC]
Track 3 accurately ripped (confidence 18) [8144BA63]
Track 4 accurately ripped (confidence 18) [1AC11F1D]
Track 5 accurately ripped (confidence 17) [32583DEB]
Track 6 accurately ripped (confidence 17) [C9CB18EE]
Track 7 accurately ripped (confidence 18) [BB06F4E2]
Track 8 accurately ripped (confidence 18) [E117B608]
Track 9 accurately ripped (confidence 18) [2D28C088]
Track 10 accurately ripped (confidence 18) [DB8AF9ED]
Track 11 accurately ripped (confidence 17) [178DAA13]
Track 12 accurately ripped (confidence 17) [7A458206]

All tracks accurately ripped

End of status report

REM GENRE “Thrash Metal”
REM DATE 1991
REM DISCID AE0EAF0C
REM COMMENT “ExactAudioCopy v0.99pb5”
PERFORMER “Metallica”
TITLE “Metallica (1993 Australasian Tour Gold Signature Edition)”
FILE “Metallica – Metallica (1993 Australasian Tour Gold Signature Edition).flac” WAVE
TRACK 01 AUDIO
TITLE “Enter Sandman”
PERFORMER “Metallica”
INDEX 01 00:00:00
TRACK 02 AUDIO
TITLE “Sad But True”
PERFORMER “Metallica”
INDEX 01 05:32:17
TRACK 03 AUDIO
TITLE “Holier Than Thou”
PERFORMER “Metallica”
INDEX 01 10:56:60
TRACK 04 AUDIO
TITLE “The Unforgiven”
PERFORMER “Metallica”
INDEX 01 14:44:32
TRACK 05 AUDIO
TITLE “Wherever I May Roam”
PERFORMER “Metallica”
INDEX 01 21:11:50
TRACK 06 AUDIO
TITLE “Don’t Tread On Me”
PERFORMER “Metallica”
INDEX 01 27:55:67
TRACK 07 AUDIO
TITLE “Through The Never”
PERFORMER “Metallica”
INDEX 01 31:56:07
TRACK 08 AUDIO
TITLE “Nothing Else Matters”
PERFORMER “Metallica”
INDEX 01 36:00:45
TRACK 09 AUDIO
TITLE “Of Wolf And Man”
PERFORMER “Metallica”
INDEX 01 42:29:25
TRACK 10 AUDIO
TITLE “The God That Failed”
PERFORMER “Metallica”
INDEX 01 46:45:70
TRACK 11 AUDIO
TITLE “My Friend Of Misery”
PERFORMER “Metallica”
INDEX 01 51:54:35
TRACK 12 AUDIO
TITLE “The Struggle Within”
PERFORMER “Metallica”
INDEX 00 58:42:45
INDEX 01 58:44:07


Leave a Reply

Your email address will not be published. Required fields are marked *

This site uses Akismet to reduce spam. Learn how your comment data is processed.