Metallica – Master Of Puppets




Artist: Metallica
Year: 1986
Genre: Metal
Notes: Discogs
Add. Notes:
Cover incl.: Yes
Encoder: FLAC
Bitrate: ~900 kBit/s (44.1 kHz/16 Bit/s)
Log & Cue incl.: Yes
Size: 378,3 MB
Password: “slam” (without ” “)


All Downloads/Hosters are compatible

Download 1
KatFile.com
Turbobit.net
FileFactory.com
Rapidgator.net
Download 2
KatFile.com
Turbobit.net
FileFactory.com
Rapidgator.net

Tracklist:

1 - Battery - 5:10
2 - Master Of Puppets - 8:38
3 - The Thing That Should Not Be - 6:32
4 - Welcome Home (Sanitarium) - 6:28
5 - Disposable Heroes - 8:14
6 - Leper Messiah - 5:38
7 - Orion - 8:12
8 - Damage, Inc. - 5:08

EAC-Log, CUE-Sheed & NFO:

Click to open spoiler
Exact Audio Copy V0.99 prebeta 5 from 4. May 2009

EAC extraction logfile from 8. October 2013, 20:45

Metallica / Master Of Puppets (UK CD MFN 60)

Used drive : PLEXTOR DVDR PX-760A Adapter: 0 ID: 0

Read mode : Secure
Utilize accurate stream : Yes
Defeat audio cache : Yes
Make use of C2 pointers : No

Read offset correction : 30
Overread into Lead-In and Lead-Out : No
Fill up missing offset samples with silence : Yes
Delete leading and trailing silent blocks : No
Null samples used in CRC calculations : Yes
Used interface : Native Win32 interface for Win NT & 2000

Used output format : User Defined Encoder
Selected bitrate : 1024 kBit/s
Quality : High
Add ID3 tag : No
Command line compressor : C:\Program Files (x86)\Exact Audio Copy\Flac\flac.exe
Additional command line options : -8 -V %s

TOC of the extracted CD

Track | Start | Length | Start sector | End sector
———————————————————
1 | 0:00.00 | 5:13.15 | 0 | 23489
2 | 5:13.15 | 8:35.17 | 23490 | 62131
3 | 13:48.32 | 6:36.15 | 62132 | 91846
4 | 20:24.47 | 6:26.65 | 91847 | 120861
5 | 26:51.37 | 8:16.48 | 120862 | 158109
6 | 35:08.10 | 5:39.67 | 158110 | 183601
7 | 40:48.02 | 8:27.30 | 183602 | 221656
8 | 49:15.32 | 5:31.43 | 221657 | 246524

Range status and errors

Selected range

Filename D:\bki71\Metallica\Metallica – Master Of Puppets (UK CD MFN 60).wav

Peak level 100.0 %
Range quality 100.0 %
Test CRC C805BE91
Copy CRC C805BE91
Copy OK

No errors occurred

AccurateRip summary

Track 1 accurately ripped (confidence 5) [5E0D7209]
Track 2 accurately ripped (confidence 5) [A0150F11]
Track 3 accurately ripped (confidence 5) [597D0AE1]
Track 4 accurately ripped (confidence 5) [0DECA564]
Track 5 accurately ripped (confidence 5) [37673FC3]
Track 6 accurately ripped (confidence 5) [32B1B948]
Track 7 accurately ripped (confidence 5) [FC598D54]
Track 8 accurately ripped (confidence 5) [F2EC5E71]

All tracks accurately ripped

End of status report

REM GENRE “Thrash Metal”
REM DATE 1986
REM DISCID 520CD708
REM COMMENT “ExactAudioCopy v0.99pb5”
PERFORMER “Metallica”
TITLE “Master Of Puppets (UK CD MFN 60)”
FILE “Metallica – Master Of Puppets (UK CD MFN 60).flac” WAVE
TRACK 01 AUDIO
TITLE “Battery”
PERFORMER “Metallica”
INDEX 01 00:00:00
TRACK 02 AUDIO
TITLE “Master Of Puppets”
PERFORMER “Metallica”
INDEX 01 05:13:15
TRACK 03 AUDIO
TITLE “The Thing That Should Not Be”
PERFORMER “Metallica”
INDEX 00 13:46:32
INDEX 01 13:48:32
TRACK 04 AUDIO
TITLE “Welcome Home (Sanitarium)”
PERFORMER “Metallica”
INDEX 00 20:22:47
INDEX 01 20:24:47
TRACK 05 AUDIO
TITLE “Disposable Heroes”
PERFORMER “Metallica”
INDEX 01 26:51:37
TRACK 06 AUDIO
TITLE “Leper Messiah”
PERFORMER “Metallica”
INDEX 01 35:08:10
TRACK 07 AUDIO
TITLE “Orion”
PERFORMER “Metallica”
INDEX 01 40:48:02
TRACK 08 AUDIO
TITLE “Damage, Inc.”
PERFORMER “Metallica”
INDEX 00 49:14:32
INDEX 01 49:15:32


Leave a Reply

Your email address will not be published. Required fields are marked *

Enter the text from the image below
 

This site uses Akismet to reduce spam. Learn how your comment data is processed.