Metallica – Master Of Puppets (Remastered)




Artist: Metallica
Year: 1986/1995
Genre: Metal
Notes: Discogs
Add. Notes: Remastered
Cover incl.: Yes
Encoder: FLAC
Bitrate: ~1000 kBit/s (44.1 kHz/16 Bit/s)
Log & Cue incl.: Yes
Size: 401,6 MB
Password: “slam” (without ” “)


All Downloads/Hosters are compatible

Download 1
KatFile.com
Turbobit.net
FileFactory.com
Rapidgator.net
Download 2
KatFile.com
Turbobit.net
FileFactory.com
Rapidgator.net

Tracklist:

1 - Battery - 5:12
2 - Master Of Puppets - 8:36
3 - The Thing That Should Not Be - 6:37
4 - Welcome Home (Sanitarium) - 6:27
5 - Disposable Heroes - 8:16
6 - Leper Messiah - 5:40
7 - Orion (Instrumental) - 8:27
8 - Damage, Inc. - 5:29

EAC-Log, CUE-Sheed & NFO:

Click to open spoiler
Exact Audio Copy V0.99 prebeta 5 from 4. May 2009

EAC extraction logfile from 9. October 2013, 0:27

Metallica / Master Of Puppets (1995 USA Elektra 9 60439-2)

Used drive : PLEXTOR DVDR PX-760A Adapter: 0 ID: 0

Read mode : Secure
Utilize accurate stream : Yes
Defeat audio cache : Yes
Make use of C2 pointers : No

Read offset correction : 30
Overread into Lead-In and Lead-Out : No
Fill up missing offset samples with silence : Yes
Delete leading and trailing silent blocks : No
Null samples used in CRC calculations : Yes
Used interface : Native Win32 interface for Win NT & 2000

Used output format : User Defined Encoder
Selected bitrate : 1024 kBit/s
Quality : High
Add ID3 tag : No
Command line compressor : C:\Program Files (x86)\Exact Audio Copy\Flac\flac.exe
Additional command line options : -8 -V %s

TOC of the extracted CD

Track | Start | Length | Start sector | End sector
———————————————————
1 | 0:00.00 | 5:12.52 | 0 | 23451
2 | 5:12.52 | 8:36.23 | 23452 | 62174
3 | 13:49.00 | 6:37.07 | 62175 | 91956
4 | 20:26.07 | 6:27.60 | 91957 | 121041
5 | 26:53.67 | 8:16.73 | 121042 | 158314
6 | 35:10.65 | 5:40.57 | 158315 | 183871
7 | 40:51.47 | 8:27.68 | 183872 | 221964
8 | 49:19.40 | 5:30.17 | 221965 | 246731

Range status and errors

Selected range

Filename D:\bki71\Metallica\Metallica – Master Of Puppets (1995 USA Elektra 9 60439-2).wav

Peak level 100.0 %
Range quality 99.9 %
Test CRC DF475DB0
Copy CRC DF475DB0
Copy OK

No errors occurred

AccurateRip summary

Track 1 accurately ripped (confidence 146) [9D32AFFE]
Track 2 accurately ripped (confidence 153) [6DEA3671]
Track 3 accurately ripped (confidence 149) [EE885E08]
Track 4 accurately ripped (confidence 149) [F755B5E1]
Track 5 accurately ripped (confidence 149) [D3D2F719]
Track 6 accurately ripped (confidence 152) [32158031]
Track 7 accurately ripped (confidence 148) [CFAC2044]
Track 8 accurately ripped (confidence 148) [17CC8530]

All tracks accurately ripped

End of status report

REM GENRE “Thrash Metal”
REM DATE 1986
REM DISCID 560CD908
REM COMMENT “ExactAudioCopy v0.99pb5”
PERFORMER “Metallica”
TITLE “Master Of Puppets (1995 USA Elektra 9 60439-2)”
FILE “Metallica – Master Of Puppets (1995 USA Elektra 9 60439-2).flac” WAVE
TRACK 01 AUDIO
TITLE “Battery ”
PERFORMER “Metallica”
INDEX 01 00:00:00
TRACK 02 AUDIO
TITLE “Master Of Puppets”
PERFORMER “Metallica”
INDEX 00 05:10:32
INDEX 01 05:12:52
TRACK 03 AUDIO
TITLE “The Thing That Should Not Be”
PERFORMER “Metallica”
INDEX 00 13:46:67
INDEX 01 13:49:00
TRACK 04 AUDIO
TITLE “Welcome Home (Sanitarium)”
PERFORMER “Metallica”
INDEX 00 20:24:00
INDEX 01 20:26:07
TRACK 05 AUDIO
TITLE “Disposable Heroes”
PERFORMER “Metallica”
INDEX 00 26:52:02
INDEX 01 26:53:67
TRACK 06 AUDIO
TITLE “Leper Messiah”
PERFORMER “Metallica”
INDEX 00 35:09:05
INDEX 01 35:10:65
TRACK 07 AUDIO
TITLE “Orion (Instrumental)”
PERFORMER “Metallica”
INDEX 00 40:50:20
INDEX 01 40:51:47
TRACK 08 AUDIO
TITLE “Damage, Inc.”
PERFORMER “Metallica”
INDEX 00 49:16:10
INDEX 01 49:19:40


Leave a Reply

Your email address will not be published. Required fields are marked *

Enter the text from the image below
 

This site uses Akismet to reduce spam. Learn how your comment data is processed.