Metallica – Master Of Puppets (Remastered Japanese Edition)




Artist: Metallica
Year: 1986/2010
Genre: Metal
Notes: Discogs
Add. Notes: Remastered Japanese Edition
Cover incl.: Yes
Encoder: FLAC
Bitrate: ~1000 kBit/s (44.1 kHz/16 Bit/s)
Log & Cue incl.: Yes
Size: 418,2 MB
Password: “slam” (without ” “)


All Downloads/Hosters are compatible

Download 1
KatFile.com
Turbobit.net
FileFactory.com
Rapidgator.net
Download 2
KatFile.com
Turbobit.net
FileFactory.com
Rapidgator.net

Tracklist:

1 - Battery - 5:10
2 - Master Of Puppets - 8:31
3 - The Thing That Should Not Be - 6:34
4 - Welcome Home (Sanitarium) - 6:27
5 - Disposable Heroes - 8:14
6 - Leper Messiah - 5:39
7 - Orion (Instrumental) - 8:23
8 - Damage, Inc. - 5:32

EAC-Log, CUE-Sheed & NFO:

Click to open spoiler
Exact Audio Copy V0.99 prebeta 5 from 4. May 2009

EAC extraction logfile from 31. March 2012, 2:26

Metallica / Master Of Puppets (SHM-CD, UICY-94664)

Used drive : PLEXTOR DVDR PX-760A Adapter: 0 ID: 0

Read mode : Secure
Utilize accurate stream : Yes
Defeat audio cache : Yes
Make use of C2 pointers : No

Read offset correction : 30
Overread into Lead-In and Lead-Out : No
Fill up missing offset samples with silence : Yes
Delete leading and trailing silent blocks : No
Null samples used in CRC calculations : Yes
Used interface : Native Win32 interface for Win NT & 2000

Used output format : User Defined Encoder
Selected bitrate : 1024 kBit/s
Quality : High
Add ID3 tag : No
Command line compressor : C:\Program Files (x86)\Exact Audio Copy\Flac\flac.exe
Additional command line options : -8 -V %s

TOC of the extracted CD

Track | Start | Length | Start sector | End sector
———————————————————
1 | 0:00.00 | 5:12.07 | 0 | 23406
2 | 5:12.07 | 8:34.39 | 23407 | 61995
3 | 13:46.46 | 6:35.59 | 61996 | 91679
4 | 20:22.30 | 6:28.37 | 91680 | 120816
5 | 26:50.67 | 8:15.63 | 120817 | 158004
6 | 35:06.55 | 5:39.19 | 158005 | 183448
7 | 40:45.74 | 8:27.56 | 183449 | 221529
8 | 49:13.55 | 5:28.48 | 221530 | 246177

Range status and errors

Selected range

Filename E:\bki71\Metallica\Metallica – Master Of Puppets (SHM-CD, UICY-94664).wav

Peak level 99.9 %
Range quality 100.0 %
Test CRC 62BDF439
Copy CRC 62BDF439
Copy OK

No errors occurred

AccurateRip summary

Track 1 accurately ripped (confidence 6) [61251749]
Track 2 accurately ripped (confidence 6) [E489AD55]
Track 3 accurately ripped (confidence 6) [5922CB60]
Track 4 accurately ripped (confidence 6) [D8A89F63]
Track 5 accurately ripped (confidence 6) [C130DC54]
Track 6 accurately ripped (confidence 5) [B6E29DAD]
Track 7 accurately ripped (confidence 6) [3DEC3367]
Track 8 accurately ripped (confidence 6) [1ABCD29B]

All tracks accurately ripped

End of status report

REM GENRE “Thrash Metal”
REM DATE 1986
REM DISCID 600CD208
REM COMMENT “ExactAudioCopy v0.99pb5”
PERFORMER “Metallica”
TITLE “Master Of Puppets (SHM-CD, UICY-94664)”
FILE “Metallica – Master Of Puppets (SHM-CD, UICY-94664).flac” WAVE
TRACK 01 AUDIO
TITLE “Battery”
PERFORMER “Metallica”
INDEX 01 00:00:00
TRACK 02 AUDIO
TITLE “Master Of Puppets”
PERFORMER “Metallica”
INDEX 00 05:10:70
INDEX 01 05:12:07
TRACK 03 AUDIO
TITLE “The Thing That Should Not Be”
PERFORMER “Metallica”
INDEX 00 13:44:48
INDEX 01 13:46:46
TRACK 04 AUDIO
TITLE “Welcome Home (Sanitarium)”
PERFORMER “Metallica”
INDEX 00 20:19:66
INDEX 01 20:22:30
TRACK 05 AUDIO
TITLE “Disposable Heroes”
PERFORMER “Metallica”
INDEX 00 26:49:07
INDEX 01 26:50:67
TRACK 06 AUDIO
TITLE “Leper Messiah”
PERFORMER “Metallica”
INDEX 00 35:05:72
INDEX 01 35:06:55
TRACK 07 AUDIO
TITLE “Orion”
PERFORMER “Metallica”
INDEX 01 40:45:74
TRACK 08 AUDIO
TITLE “Damage, Inc.”
PERFORMER “Metallica”
INDEX 00 49:09:62
INDEX 01 49:13:55


Leave a Reply

Your email address will not be published. Required fields are marked *

Enter the text from the image below
 

This site uses Akismet to reduce spam. Learn how your comment data is processed.