Metallica – Master Of Puppets (Australian Tour Edition)




Artist: Metallica
Year: 1986/1993
Genre: Metal
Notes: Discogs
Add. Notes: Australian Tour Edition
Cover incl.: Yes
Encoder: FLAC
Bitrate: ~900 kBit/s (44.1 kHz/16 Bit/s)
Log & Cue incl.: Yes
Size: 365 MB
Password: “slam” (without ” “)


All Downloads/Hosters are compatible

Download 1
KatFile.com
Turbobit.net
FileFactory.com
Rapidgator.net
Download 2
KatFile.com
Turbobit.net
FileFactory.com
Rapidgator.net

Tracklist:

1 - Battery - 5:10
2 - Master Of Puppets - 8:38
3 - The Thing That Should Not Be - 6:32
4 - Welcome Home (Sanitarium) - 6:28
5 - Disposable Heroes - 8:14
6 - Leper Messiah - 5:38
7 - Orion (Instrumental) - 8:12
8 - Damage, Inc. - 5:08

EAC-Log, CUE-Sheed & NFO:

Click to open spoiler
Exact Audio Copy V1.0 beta 1 from 15. November 2010

EAC extraction logfile from 11. June 2011, 2:23

Metallica / Master Of Puppets (1993 Australian Tour Gold Edition)

Used drive : PLEXTOR DVDR PX-760A Adapter: 0 ID: 0

Read mode : Secure
Utilize accurate stream : Yes
Defeat audio cache : Yes
Make use of C2 pointers : No

Read offset correction : 30
Overread into Lead-In and Lead-Out : No
Fill up missing offset samples with silence : Yes
Delete leading and trailing silent blocks : No
Null samples used in CRC calculations : Yes
Used interface : Native Win32 interface for Win NT & 2000

Used output format : User Defined Encoder
Selected bitrate : 1024 kBit/s
Quality : High
Add ID3 tag : No
Command line compressor : C:\Program Files (x86)\Exact Audio Copy\Flac\flac.exe
Additional command line options : -T “DATE=%y” -T “GENRE=%m” -8 -V %s

TOC of the extracted CD

Track | Start | Length | Start sector | End sector
———————————————————
1 | 0:00.00 | 5:13.02 | 0 | 23476
2 | 5:13.02 | 8:35.18 | 23477 | 62119
3 | 13:48.20 | 6:36.00 | 62120 | 91819
4 | 20:24.20 | 6:27.20 | 91820 | 120864
5 | 26:51.40 | 8:16.50 | 120865 | 158114
6 | 35:08.15 | 5:39.62 | 158115 | 183601
7 | 40:48.02 | 8:27.25 | 183602 | 221651
8 | 49:15.27 | 5:29.50 | 221652 | 246376

Range status and errors

Selected range

Filename D:\bki71\Metallica\Studio Albums\1986 – Master Of Puppets\Metallica – Master Of Puppets (1993 Australian Tour Gold Edition).wav

Peak level 99.3 %
Extraction speed 0.2 X
Range quality 100.0 %
Test CRC 7A4EC627
Copy CRC 7A4EC627
Copy OK

No errors occurred

AccurateRip summary

Track 1 accurately ripped (confidence 5) [3F2DBABA]
Track 2 accurately ripped (confidence 5) [4D2849E6]
Track 3 accurately ripped (confidence 5) [8DD1B639]
Track 4 accurately ripped (confidence 5) [48C977E5]
Track 5 accurately ripped (confidence 5) [373ED4A5]
Track 6 accurately ripped (confidence 6) [7D0963A2]
Track 7 accurately ripped (confidence 6) [77024DF4]
Track 8 accurately ripped (confidence 4) [36F178A4]

All tracks accurately ripped

End of status report

==== Log checksum E42D3DDBB7582ECD588E2B9020311B7FD1A6481A04F8B1419AE9B0B6864327EB ====

REM GENRE “Thrash Metal”
REM DATE 1986
REM DISCID 520CD508
REM COMMENT “ExactAudioCopy v1.0b1”
PERFORMER “Metallica”
TITLE “Master Of Puppets (1993 Australian Tour Gold Edition)”
FILE “Metallica – Master Of Puppets (1993 Australian Tour Gold Edition).flac” WAVE
TRACK 01 AUDIO
TITLE “Battery”
PERFORMER “Metallica”
INDEX 01 00:00:00
TRACK 02 AUDIO
TITLE “Master Of Puppets”
PERFORMER “Metallica”
INDEX 01 05:13:02
TRACK 03 AUDIO
TITLE “The Thing That Should Not Be”
PERFORMER “Metallica”
INDEX 00 13:45:57
INDEX 01 13:48:20
TRACK 04 AUDIO
TITLE “Welcome Home (Sanitarium)”
PERFORMER “Metallica”
INDEX 00 20:20:62
INDEX 01 20:24:20
TRACK 05 AUDIO
TITLE “Disposable Heroes”
PERFORMER “Metallica”
INDEX 01 26:51:40
TRACK 06 AUDIO
TITLE “Leper Messiah”
PERFORMER “Metallica”
INDEX 00 35:06:37
INDEX 01 35:08:15
TRACK 07 AUDIO
TITLE “Orion (Instrumental)”
PERFORMER “Metallica”
INDEX 01 40:48:02
TRACK 08 AUDIO
TITLE “Damage, Inc.”
PERFORMER “Metallica”
INDEX 00 49:12:32
INDEX 01 49:15:27


Leave a Reply

Your email address will not be published. Required fields are marked *

This site uses Akismet to reduce spam. Learn how your comment data is processed.